Deep Purple – This Time Around Live in Tokyo 75 (Limited Japanese Edition)




No Cover available

Artist: Deep Purple
Year: 2001/2004
Genre: Rock
Notes: Discogs
Add. Notes: Limited Japanese Edition
Watch Songs on: YouTube
Cover incl.: Yes
Encoder: FLAC
Bitrate: ~900 kBit/s (44.1 kHz/16 Bit/s)
Log & Cue incl.: Yes/Yes
Size: 869,1 MB
Password: “slam” (without ” “)


All Downloads/Hosters are compatible

Download 1
KatFile.com
Turbobit.net
FileFactory.com
Rapidgator.net
Download 2
KatFile.com
Turbobit.net
FileFactory.com
Rapidgator.net

Tracklist:

1-1 Burn 
1-2 Lady luck 
1-3 Love child 
1-4 Gettin' Tighter 
1-5 Smoke On The Water~Georgia On My Mind 
1-6 Wild Dogs 

2-1 I Need Love 
2-2 Soldier of Fortune 
2-3 Jon Lord Solo 
2-4 Lazy&Drum Solo 
2-5 This Time Around 
2-6 Owed To G 
2-7 Tommy Bolin Guitar Solo 
2-8 Drifter 
2-9 You Keep On Moving 
2-10 Stormbringer 
2-11 (Encore) Highway Star

EAC-Log, CUE-Sheed & NFO:

Click to open spoiler
Exact Audio Copy V0.99 prebeta 5 from 4. May 2009

Отчёт EAC об извлечении, выполненном 18. февраля 2011, 18:51

Deep Purple / This Time Around Live In Tokyo 75 (Disc 1)

Дисковод: Optiarc DVD RW AD-7240S Adapter: 1 ID: 0

Режим чтения : Достоверность
Использование точного потока : Да
Отключение кэша аудио : Да
Использование указателей C2 : Нет

Коррекция смещения при чтении : 48
Способность читать области Lead-in и Lead-out : Нет
Заполнение пропущенных сэмплов тишиной : Да
Удаление блоков с тишиной в начале и конце : Нет
При вычислениях CRC использовались нулевые сэмплы : Да
Интерфейс : Встроенный Win32-интерфейс для Win NT/2000

Выходной формат : Пользовательский кодировщик
Выбранный битрейт : 768 kBit/s
Качество : Высокий
Добавление ID3-тэга : Нет
Утилита сжатия : C:\Program Files\Exact Audio Copy\FLAC\FLAC.EXE
Дополнительные параметры : -6 -V -T “ARTIST=%a” -T “TITLE=%t” -T “ALBUM=%g” -T “DATE=%y” -T “TRACKNUMBER=%n” -T “GENRE=%m” -T “COMMENT=%e” %s -o %d

TOC извлечённого CD

Трек | Старт | Длительность | Начальный сектор | Конечный сектор
———————————————————————
1 | 0:00.00 | 8:39.41 | 0 | 38965
2 | 8:39.41 | 3:31.23 | 38966 | 54813
3 | 12:10.64 | 5:00.65 | 54814 | 77378
4 | 17:11.54 | 16:52.24 | 77379 | 153302
5 | 34:04.03 | 10:14.20 | 153303 | 199372
6 | 44:18.23 | 6:07.21 | 199373 | 226918

Характеристики диапазона извлечения и сообщения об ошибках

Выбранный диапазон

Имя файла E:\music\Deep Purple 1 press\Deep Purple Live\Deep Purple This Time Around Live In Tokyo 75\Disc1\Deep Purple – This Time Around Live In Tokyo 75 (Disc 1).wav

Пиковый уровень 98.5 %
Качество диапазона 100.0 %
CRC теста BE2A0BAF
CRC копии BE2A0BAF
Копирование… OK

Ошибок не произошло

AccurateRip: сводка

Трек 1 точное извлечение (доверие 1) [F7E2CD1B]
Трек 2 нет в базе данных
Трек 3 точное извлечение (доверие 1) [E17328D5]
Трек 4 точное извлечение (доверие 1) [7BB7DAA5]
Трек 5 точное извлечение (доверие 1) [B4908F04]
Трек 6 точное извлечение (доверие 1) [D45B8677]

5 трек(и) скопированы точно
1 трек(и) не содержатся в базе AccurateRip

Некоторые треки не прошли проверку на точность

Конец отчёта

Exact Audio Copy V0.99 prebeta 5 from 4. May 2009

Отчёт EAC об извлечении, выполненном 18. февраля 2011, 19:28

Deep Purple / This Time Around Live In Tokyo 75 (Disc 2)

Дисковод: Optiarc DVD RW AD-7240S Adapter: 1 ID: 0

Режим чтения : Достоверность
Использование точного потока : Да
Отключение кэша аудио : Да
Использование указателей C2 : Нет

Коррекция смещения при чтении : 48
Способность читать области Lead-in и Lead-out : Нет
Заполнение пропущенных сэмплов тишиной : Да
Удаление блоков с тишиной в начале и конце : Нет
При вычислениях CRC использовались нулевые сэмплы : Да
Интерфейс : Встроенный Win32-интерфейс для Win NT/2000

Выходной формат : Пользовательский кодировщик
Выбранный битрейт : 768 kBit/s
Качество : Высокий
Добавление ID3-тэга : Нет
Утилита сжатия : C:\Program Files\Exact Audio Copy\FLAC\FLAC.EXE
Дополнительные параметры : -6 -V -T “ARTIST=%a” -T “TITLE=%t” -T “ALBUM=%g” -T “DATE=%y” -T “TRACKNUMBER=%n” -T “GENRE=%m” -T “COMMENT=%e” %s -o %d

TOC извлечённого CD

Трек | Старт | Длительность | Начальный сектор | Конечный сектор
———————————————————————
1 | 0:00.00 | 5:48.53 | 0 | 26152
2 | 5:48.53 | 1:47.28 | 26153 | 34205
3 | 7:36.06 | 9:43.29 | 34206 | 77959
4 | 17:19.35 | 13:33.47 | 77960 | 138981
5 | 30:53.07 | 3:38.17 | 138982 | 155348
6 | 34:31.24 | 3:29.06 | 155349 | 171029
7 | 38:00.30 | 7:09.68 | 171030 | 203272
8 | 45:10.23 | 5:55.48 | 203273 | 229945
9 | 51:05.71 | 6:38.52 | 229946 | 259847
10 | 57:44.48 | 10:08.57 | 259848 | 305504
11 | 67:53.30 | 7:31.67 | 305505 | 339396

Характеристики диапазона извлечения и сообщения об ошибках

Выбранный диапазон

Имя файла E:\music\Deep Purple 1 press\Deep Purple Live\Deep Purple This Time Around Live In Tokyo 75\Disc2\Deep Purple – This Time Around Live In Tokyo 75 (Disc 2).wav

Пиковый уровень 96.6 %
Качество диапазона 100.0 %
CRC теста B37DFF78
CRC копии B37DFF78
Копирование… OK

Ошибок не произошло

AccurateRip: сводка

Трек 1 точное извлечение (доверие 1) [7F53F9C1]
Трек 2 точное извлечение (доверие 1) [D3F0E474]
Трек 3 точное извлечение (доверие 1) [903B5686]
Трек 4 точное извлечение (доверие 1) [6BD5F67F]
Трек 5 точное извлечение (доверие 1) [F57DC646]
Трек 6 точное извлечение (доверие 1) [423B58F6]
Трек 7 точное извлечение (доверие 1) [8F478739]
Трек 8 точное извлечение (доверие 1) [CF096205]
Трек 9 точное извлечение (доверие 1) [C01EE073]
Трек 10 точное извлечение (доверие 1) [D3A81BD7]
Трек 11 точное извлечение (доверие 1) [037815EF]

Все треки извлечены точно

Конец отчёта

REM GENRE “Hard Rock”
REM DATE 1975
REM DISCID 370BD106
REM COMMENT “ExactAudioCopy v0.99pb5”
PERFORMER “Deep Purple”
TITLE “This Time Around Live In Tokyo 75 CD1 (2003, 2CD, VPCK-85326)”
FILE “Deep Purple – This Time Around Live In Tokyo 75 (Disc 1).flac” WAVE
TRACK 01 AUDIO
TITLE “Burn”
PERFORMER “Deep Purple”
INDEX 01 00:00:00
TRACK 02 AUDIO
TITLE “Lady Luck”
PERFORMER “Deep Purple”
INDEX 01 08:39:41
TRACK 03 AUDIO
TITLE “Love Child”
PERFORMER “Deep Purple”
INDEX 01 12:10:64
TRACK 04 AUDIO
TITLE “Gettin’ Tighter”
PERFORMER “Deep Purple”
INDEX 01 17:11:54
TRACK 05 AUDIO
TITLE “Smoke On The Water?Georgia On My Mind”
PERFORMER “Deep Purple”
INDEX 01 34:04:03
TRACK 06 AUDIO
TITLE “Wild Dogs”
PERFORMER “Deep Purple”
INDEX 01 44:18:23

REM GENRE “Hard Rock”
REM DATE 1975
REM DISCID 8D11AD0B
REM COMMENT “ExactAudioCopy v0.99pb5”
PERFORMER “Deep Purple”
TITLE “This Time Around Live In Tokyo 75 CD2 (2003, 2CD, VPCK-85326)”
FILE “Deep Purple – This Time Around Live In Tokyo 75 (Disc 2).flac” WAVE
TRACK 01 AUDIO
TITLE “I Need Love”
PERFORMER “Deep Purple”
INDEX 01 00:00:00
TRACK 02 AUDIO
TITLE “Soldier Of Fortune”
PERFORMER “Deep Purple”
INDEX 01 05:48:53
TRACK 03 AUDIO
TITLE “Jon Lord Solo”
PERFORMER “Deep Purple”
INDEX 01 07:36:06
TRACK 04 AUDIO
TITLE “Lazy & Drum Solo”
PERFORMER “Deep Purple”
INDEX 01 17:19:35
TRACK 05 AUDIO
TITLE “This Time Around”
PERFORMER “Deep Purple”
INDEX 01 30:53:07
TRACK 06 AUDIO
TITLE “Owed To G”
PERFORMER “Deep Purple”
INDEX 01 34:31:24
TRACK 07 AUDIO
TITLE “Tommy Bolin Guitar Solo”
PERFORMER “Deep Purple”
INDEX 01 38:00:30
TRACK 08 AUDIO
TITLE “Drifter”
PERFORMER “Deep Purple”
INDEX 01 45:10:23
TRACK 09 AUDIO
TITLE “You Keep On Moving”
PERFORMER “Deep Purple”
INDEX 01 51:05:71
TRACK 10 AUDIO
TITLE “Stormbringer”
PERFORMER “Deep Purple”
INDEX 01 57:44:48
TRACK 11 AUDIO
TITLE “Highway Star”
PERFORMER “Deep Purple”
INDEX 01 67:53:30


Leave a Reply

Your email address will not be published. Required fields are marked *

Enter the text from the image below
 

This site uses Akismet to reduce spam. Learn how your comment data is processed.