Deep Purple – The House Of Blue Light (Limited Remastered Japanese Edition)




Artist: Deep Purple
Year: 1987/1999
Genre: Rock
Notes: Discogs
Add. Notes: Limited Remastered Japanese Edition
Encoder: FLAC
Bitrate: ~1000 kBit/s (44.1 kHz/16 Bit/s)
Size: 406 MB
Password: “slam” (without ” “)


http://www.share-online.biz/dl/O2X42WPP4QJ http://www.share-online.biz/dl/T0052WPP0SL
https://rapidgator.net/file/8ec51a2a687e81871d01ea5ee6572e94/DeePur-1987TheHou.part1.rar https://rapidgator.net/file/faa8078fd92711e2da24449442700b7a/DeePur-1987TheHou.part2.rar
https://ayefiles.com/5q0gefbx7h9t/DeePur-1987TheHou.part1.rar.html https://ayefiles.com/fmoqm4ep98tt/DeePur-1987TheHou.part2.rar.html
Onlinestatus: Turbobit.net Rapidgator.net AyeFiles.com

Tracklist:

1 - Bad Attitude - 4:43
2 - The Unwritten Law - 4:34
3 - Call Of The Wild - 4:50
4 - Mad Dog - 4:29
5 - Black & White - 3:39
6 - Hard Lovin Woman - 3:24
7 - The Spanish Archer - 4:56
8 - Strangeways - 5:56
9 - Mitzi Dupree - 5:03
10 - Dead Or Alive - 4:42

EAC-Log, CUE-Sheed & NFO:

Click to open spoiler
Exact Audio Copy V1.0 beta 3 from 29. August 2011

EAC extraction logfile from 18. July 2013, 23:50

Deep Purple / The House Of Blue Light

Used drive : ATAPI iHAS124 B Adapter: 2 ID: 0

Read mode : Secure
Utilize accurate stream : Yes
Defeat audio cache : Yes
Make use of C2 pointers : No

Read offset correction : 6
Overread into Lead-In and Lead-Out : No
Fill up missing offset samples with silence : Yes
Delete leading and trailing silent blocks : No
Null samples used in CRC calculations : Yes
Used interface : Native Win32 interface for Win NT & 2000

Used output format : User Defined Encoder
Selected bitrate : 1024 kBit/s
Quality : High
Add ID3 tag : No
Command line compressor : C:\Program Files (x86)\Exact Audio Copy\FLAC\FLAC.EXE
Additional command line options : -8 -V -T “ARTIST=%artist%” -T “TITLE=%title%” -T “ALBUM=%albumtitle%” -T “DATE=%year%” -T “TRACKNUMBER=%tracknr%” -T “GENRE=%genre%” -T “PERFORMER=%albuminterpret%” -T “COMPOSER=%composer%” %haslyrics%–tag-from-file=LYRICS=”%lyricsfile%”%haslyrics% -T “ALBUMARTIST=%albumartist%” -T “DISCNUMBER=%cdnumber%” -T “TOTALDISCS=%totalcds%” -T “TOTALTRACKS=%numtracks%” -T “COMMENT=%comment%” %source% -o %dest%

TOC of the extracted CD

Track | Start | Length | Start sector | End sector
———————————————————
1 | 0:00.00 | 4:46.55 | 0 | 21504
2 | 4:46.55 | 4:37.40 | 21505 | 42319
3 | 9:24.20 | 4:53.45 | 42320 | 64339
4 | 14:17.65 | 4:34.27 | 64340 | 84916
5 | 18:52.17 | 3:42.58 | 84917 | 101624
6 | 22:35.00 | 3:25.50 | 101625 | 117049
7 | 26:00.50 | 4:59.65 | 117050 | 139539
8 | 31:00.40 | 5:58.60 | 139540 | 166449
9 | 36:59.25 | 5:05.55 | 166450 | 189379
10 | 42:05.05 | 4:42.62 | 189380 | 210591

Range status and errors

Selected range

Filename G:\CD\Deep Purple – The House Of Blue Light.wav

Peak level 100.0 %
Extraction speed 5.7 X
Range quality 100.0 %
Test CRC A3627009
Copy CRC A3627009
Copy OK

No errors occurred

AccurateRip summary

Track 1 accurately ripped (confidence 3) [E1972A92] (AR v2)
Track 2 accurately ripped (confidence 3) [28E40C26] (AR v2)
Track 3 accurately ripped (confidence 3) [AF000C33] (AR v2)
Track 4 accurately ripped (confidence 3) [64DF4FA2] (AR v2)
Track 5 accurately ripped (confidence 3) [6B17A9DF] (AR v2)
Track 6 accurately ripped (confidence 3) [8C00891D] (AR v2)
Track 7 accurately ripped (confidence 3) [9DC3F746] (AR v2)
Track 8 accurately ripped (confidence 3) [3E4AE03B] (AR v2)
Track 9 accurately ripped (confidence 3) [9B2960FA] (AR v2)
Track 10 accurately ripped (confidence 3) [93EA02B2] (AR v2)

All tracks accurately ripped

End of status report

==== Log checksum 515DBD4A4538C74921B0AD586F5BE15163739086B97D1E2A96F6A8B5A47D3EB5 ====

REM GENRE “Hard Rock”
REM DATE 1987
REM DISCID 8A0AF70A
REM COMMENT “ExactAudioCopy v1.0b3”
PERFORMER “Deep Purple”
TITLE “The House Of Blue Light (1999, 546162-2)”
FILE “Deep Purple – The House Of Blue Light.flac” WAVE
TRACK 01 AUDIO
TITLE “Deep Purple – Bad Attitude (1986)”
PERFORMER “Deep Purple”
INDEX 01 00:00:00
TRACK 02 AUDIO
TITLE “Deep Purple – The Unwritten Law (1986)”
PERFORMER “Deep Purple”
INDEX 00 04:43:57
INDEX 01 04:46:55
TRACK 03 AUDIO
TITLE “Deep Purple – Call Of The Wind (1986)”
PERFORMER “Deep Purple”
INDEX 00 09:21:47
INDEX 01 09:24:20
TRACK 04 AUDIO
TITLE “Deep Purple – Mad Dog (1986)”
PERFORMER “Deep Purple”
INDEX 00 14:14:57
INDEX 01 14:17:65
TRACK 05 AUDIO
TITLE “Deep Purple – Black & White (1986)”
PERFORMER “Deep Purple”
INDEX 00 18:47:62
INDEX 01 18:52:17
TRACK 06 AUDIO
TITLE “Deep Purple – Hard Lovin’ Woman (1986)”
PERFORMER “Deep Purple”
INDEX 00 22:31:67
INDEX 01 22:35:00
TRACK 07 AUDIO
TITLE “Deep Purple – The Spanish Archer (1986)”
PERFORMER “Deep Purple”
INDEX 00 25:59:47
INDEX 01 26:00:50
TRACK 08 AUDIO
TITLE “Deep Purple – Strangeways (1986)”
PERFORMER “Deep Purple”
INDEX 00 30:57:15
INDEX 01 31:00:40
TRACK 09 AUDIO
TITLE “Deep Purple – Mitzie Dupree (1986)”
PERFORMER “Deep Purple”
INDEX 00 36:57:00
INDEX 01 36:59:25
TRACK 10 AUDIO
TITLE “Deep Purple – Dead Or Alive (1986)”
PERFORMER “Deep Purple”
INDEX 00 42:02:45
INDEX 01 42:05:05

Leave a Reply

Your email address will not be published. Required fields are marked *

This site uses Akismet to reduce spam. Learn how your comment data is processed.