Deep Purple – The House Of Blue Light (Remastered Japanese Edition)




Artist: Deep Purple
Year: 1987/2013
Genre: Rock
Notes: Discogs
Add. Notes: Remastered Japanese Edition
Cover incl.: Yes
Encoder: FLAC
Bitrate: ~1000 kBit/s (44.1 kHz/16 Bit/s)
Log & Cue incl.: Yes
Size: 400 MB
Password: “slam” (without ” “)


All Downloads/Hosters are compatible

Download 1
KatFile.com
Turbobit.net
Rapidgator.net
Download 2
KatFile.com
Turbobit.net
Rapidgator.net

Tracklist:

1 - Bad Attitude - 4:47
2 - The Unwritten Law - 4:38
3 - Call Of The Wild - 4:54
4 - Mad Dog - 4:34
5 - Black & White - 3:43
6 - Hard Lovin' Woman - 3:26
7 - The Spanish Archer - 5:00
8 - Strangeways - 5:59
9 - Mitzie Dupree - 5:06
10 - Dead Or Alive - 4:43

EAC-Log, CUE-Sheed & NFO:

Click to open spoiler
Exact Audio Copy V1.0 beta 3 from 29. August 2011

EAC extraction logfile from 24. September 2013, 22:45

Deep Purple / The House Of Blue Light [2013, UICY 75501]

Used drive : ASUS DRW-22B3S Adapter: 3 ID: 1

Read mode : Secure
Utilize accurate stream : Yes
Defeat audio cache : Yes
Make use of C2 pointers : No

Read offset correction : 6
Overread into Lead-In and Lead-Out : No
Fill up missing offset samples with silence : Yes
Delete leading and trailing silent blocks : No
Null samples used in CRC calculations : Yes
Used interface : Installed external ASPI interface

Used output format : User Defined Encoder
Selected bitrate : 768 kBit/s
Quality : High
Add ID3 tag : No
Command line compressor : C:\Program Files\Exact Audio Copy\FLAC\FLAC.EXE
Additional command line options : -V -8 -T “Genre=%genre%” -T “Artist=%artist%” -T “Title=%title%” -T “Album=%albumtitle%” -T “Date=%year%” -T “Tracknumber=%tracknr%” -T “Comment=%comment%” %source%

TOC of the extracted CD

Track | Start | Length | Start sector | End sector
———————————————————
1 | 0:00.00 | 4:46.40 | 0 | 21489
2 | 4:46.40 | 4:37.40 | 21490 | 42304
3 | 9:24.05 | 4:53.47 | 42305 | 64326
4 | 14:17.52 | 4:34.24 | 64327 | 84900
5 | 18:52.01 | 3:42.67 | 84901 | 101617
6 | 22:34.68 | 3:25.44 | 101618 | 117036
7 | 26:00.37 | 4:59.54 | 117037 | 139515
8 | 31:00.16 | 5:58.70 | 139516 | 166435
9 | 36:59.11 | 5:05.53 | 166436 | 189363
10 | 42:04.64 | 4:43.19 | 189364 | 210607

Range status and errors

Selected range

Filename H:\gym1974 (rutracker.org)\1987 – The House Of Blue Light [2013, UICY 75501]\Deep Purple – The House Of Blue Light [2013, UICY 75501].wav

Peak level 99.8 %
Extraction speed 5.4 X
Range quality 100.0 %
Test CRC 307AAD7B
Copy CRC 307AAD7B
Copy OK

No errors occurred

AccurateRip summary

Track 1 accurately ripped (confidence 5) [FC9CB644] (AR v2)
Track 2 accurately ripped (confidence 5) [3B6C53C2] (AR v2)
Track 3 accurately ripped (confidence 5) [A05D9A5E] (AR v2)
Track 4 accurately ripped (confidence 4) [5A6A3D97] (AR v2)
Track 5 accurately ripped (confidence 5) [764AC27E] (AR v2)
Track 6 accurately ripped (confidence 5) [E9CDCCE2] (AR v2)
Track 7 accurately ripped (confidence 5) [F0750BA0] (AR v2)
Track 8 accurately ripped (confidence 5) [D9ED8208] (AR v2)
Track 9 accurately ripped (confidence 5) [FA0EB1AF] (AR v2)
Track 10 accurately ripped (confidence 5) [B4DA6B39] (AR v2)

All tracks accurately ripped

End of status report

—- CUETools DB Plugin V2.1.3

[CTDB TOCID: .4UlMXLXZj8L0_RycjQw8zrqNcc-] found, Submit result: .4UlMXLXZj8L0_RycjQw8zrqNcc- has been confirmed
[e7556847] (4/4) Accurately ripped

==== Log checksum 4A111CF2C1540A8A9E55216AC9AAB78BEE64D9A20C721DB72F196A7B805EDCE9 ====

REM GENRE “Hard Rock”
REM DATE 1987
REM DISCID 880AF80A
REM COMMENT “ExactAudioCopy v1.0b3”
PERFORMER “Deep Purple”
TITLE “The House Of Blue Light (2013, UICY 75501)”
FILE “Deep Purple – The House Of Blue Light [2013, UICY 75501].flac” WAVE
TRACK 01 AUDIO
TITLE “Bad Attitude”
PERFORMER “Deep Purple”
INDEX 01 00:00:00
TRACK 02 AUDIO
TITLE “The Uwritten Law”
PERFORMER “Deep Purple”
INDEX 00 04:43:66
INDEX 01 04:46:40
TRACK 03 AUDIO
TITLE “Call Of The Wild”
PERFORMER “Deep Purple”
INDEX 00 09:21:72
INDEX 01 09:24:05
TRACK 04 AUDIO
TITLE “Mad Dog”
PERFORMER “Deep Purple”
INDEX 00 14:15:40
INDEX 01 14:17:52
TRACK 05 AUDIO
TITLE “Black & White”
PERFORMER “Deep Purple”
INDEX 00 18:48:36
INDEX 01 18:52:01
TRACK 06 AUDIO
TITLE “Hard Lovin’ Woman”
PERFORMER “Deep Purple”
INDEX 00 22:32:52
INDEX 01 22:34:68
TRACK 07 AUDIO
TITLE “The Spanish Archer”
PERFORMER “Deep Purple”
INDEX 00 25:59:49
INDEX 01 26:00:37
TRACK 08 AUDIO
TITLE “Strangeways”
PERFORMER “Deep Purple”
INDEX 00 30:57:73
INDEX 01 31:00:16
TRACK 09 AUDIO
TITLE “Mitzie Dupree”
PERFORMER “Deep Purple”
INDEX 00 36:57:08
INDEX 01 36:59:11
TRACK 10 AUDIO
TITLE “Dead Or Alive”
PERFORMER “Deep Purple”
INDEX 00 42:02:43
INDEX 01 42:04:64


Leave a Reply

Your email address will not be published. Required fields are marked *

This site uses Akismet to reduce spam. Learn how your comment data is processed.