Deep Purple – The Deep Purple Singles A’s & B’s




[Total: 0    Average: 0/5]

Artist: Deep Purple
Year: 1978/1989
Genre: Rock
Notes: Discogs
Add. Notes:
Cover incl.: Yes
Encoder: FLAC
Bitrate: ~800 kBit/s (44.1 kHz/16 Bit/s)
Log & Cue incl.: Yes
Size: 297,32 MB
Password: “slam” (without ” “)


All Downloads/Hosters are compatible

Download 1
Share-online.biz
KatFile.com
Rapidgator.net
Mexa.sh
Download 2
Share-online.biz
KatFile.com
Rapidgator.net
Mexa.sh

Tracklist:

1 - Hush - 4:25
2 - One More Rainy Day - 3:38
3 - Emmaretta - 2:59
4 - Wring That Neck - 5:12
5 - Hallelujah - 3:42
6 - April Part I - 3:57
7 - Black Night - 3:27
8 - Speed King - 4:25
9 - Strange Kind Of Woman - 3:47
10 - I'm Alone - 3:05
11 - Demon's Eye - 5:12
12 - Fireball - 3:23

EAC-Log, CUE-Sheed & NFO:

Click to open spoiler
Exact Audio Copy V1.1 from 23. June 2015

EAC extraction logfile from 30. December 2015, 17:00

Deep Purple / The Deep Purple Singles A’s & B’s

Used drive : ASUS DRW-24B3ST Adapter: 1 ID: 0

Read mode : Secure
Utilize accurate stream : Yes
Defeat audio cache : Yes
Make use of C2 pointers : No

Read offset correction : 6
Overread into Lead-In and Lead-Out : No
Fill up missing offset samples with silence : Yes
Delete leading and trailing silent blocks : No
Null samples used in CRC calculations : Yes
Used interface : Native Win32 interface for Win NT & 2000

Used output format : Internal WAV Routines
Sample format : 44.100 Hz; 16 Bit; Stereo

TOC of the extracted CD

Track | Start | Length | Start sector | End sector
———————————————————
1 | 0:00.33 | 4:25.60 | 33 | 19967
2 | 4:26.18 | 3:38.55 | 19968 | 36372
3 | 8:04.73 | 3:00.30 | 36373 | 49902
4 | 11:05.28 | 5:13.22 | 49903 | 73399
5 | 16:18.50 | 3:43.35 | 73400 | 90159
6 | 20:02.10 | 3:57.43 | 90160 | 107977
7 | 23:59.53 | 3:27.57 | 107978 | 123559
8 | 27:27.35 | 4:26.60 | 123560 | 143569
9 | 31:54.20 | 3:48.15 | 143570 | 160684
10 | 35:42.35 | 3:06.03 | 160685 | 174637
11 | 38:48.38 | 5:13.17 | 174638 | 198129
12 | 44:01.55 | 3:23.08 | 198130 | 213362

Range status and errors

Selected range

Filename D:\unclesandy\Deep Purple – The Deep Purple Singles A’s & B’s [UK, CD-FA 3212].wav

Peak level 99.7 %
Extraction speed 5.5 X
Range quality 100.0 %
Test CRC 3E62D56A
Copy CRC 3E62D56A
Copy OK

No errors occurred

AccurateRip summary

Track 1 accurately ripped (confidence 18) [4C28392A] (AR v2)
Track 2 accurately ripped (confidence 19) [F37BE920] (AR v2)
Track 3 accurately ripped (confidence 18) [9B7B71F0] (AR v2)
Track 4 accurately ripped (confidence 17) [238EC937] (AR v2)
Track 5 accurately ripped (confidence 18) [C0FD5755] (AR v2)
Track 6 accurately ripped (confidence 17) [E7328D61] (AR v2)
Track 7 accurately ripped (confidence 16) [A53509DC] (AR v2)
Track 8 accurately ripped (confidence 17) [3FDE3FE6] (AR v2)
Track 9 accurately ripped (confidence 15) [1B71B782] (AR v2)
Track 10 accurately ripped (confidence 17) [CE80F6C5] (AR v2)
Track 11 accurately ripped (confidence 16) [F94A5995] (AR v2)
Track 12 accurately ripped (confidence 16) [CF971524] (AR v2)

All tracks accurately ripped

End of status report

—- CUETools DB Plugin V2.1.6

[CTDB TOCID: oekAcI4tzXe6Is_6RkCr_GUL.u0-] found
Submit result: already submitted
Track | CTDB Status
1 | (14/14) Accurately ripped
2 | (14/14) Accurately ripped
3 | (14/14) Accurately ripped
4 | (13/14) Accurately ripped
5 | (14/14) Accurately ripped
6 | (14/14) Accurately ripped
7 | (14/14) Accurately ripped
8 | (14/14) Accurately ripped
9 | (14/14) Accurately ripped
10 | (14/14) Accurately ripped
11 | (14/14) Accurately ripped
12 | (14/14) Accurately ripped

==== Log checksum AFC8ED383AE0A0195C9BDB6B8F0E44A946FD50FE37DEA98B72D07AC2F6585542 ====

REM GENRE “Hard Rock”
REM DATE 1978
REM DISCID A00B1C0C
REM COMMENT “ExactAudioCopy v1.1”
PERFORMER “Deep Purple”
TITLE “The Deep Purple Singles A’s & B’s”
FILE “Deep Purple – The Deep Purple Singles A’s & B’s [UK, CD-FA 3212].flac” WAVE
TRACK 01 AUDIO
TITLE “Hush”
PERFORMER “Deep Purple”
INDEX 00 00:00:00
INDEX 01 00:00:33
TRACK 02 AUDIO
TITLE “One More Rainy Day”
PERFORMER “Deep Purple”
INDEX 00 04:25:00
INDEX 01 04:26:18
TRACK 03 AUDIO
TITLE “Emmaretta”
PERFORMER “Deep Purple”
INDEX 00 08:03:73
INDEX 01 08:04:73
TRACK 04 AUDIO
TITLE “Wring That Neck”
PERFORMER “Deep Purple”
INDEX 00 11:04:20
INDEX 01 11:05:28
TRACK 05 AUDIO
TITLE “Hallelujah”
PERFORMER “Deep Purple”
INDEX 00 16:17:38
INDEX 01 16:18:50
TRACK 06 AUDIO
TITLE “April (Pt. 1)”
PERFORMER “Deep Purple”
INDEX 00 20:00:73
INDEX 01 20:02:10
TRACK 07 AUDIO
TITLE “Black Night”
PERFORMER “Deep Purple”
INDEX 00 23:58:50
INDEX 01 23:59:53
TRACK 08 AUDIO
TITLE “Speed King”
PERFORMER “Deep Purple”
INDEX 00 27:26:63
INDEX 01 27:27:35
TRACK 09 AUDIO
TITLE “Strange Kind of Woman”
PERFORMER “Deep Purple”
INDEX 00 31:52:63
INDEX 01 31:54:20
TRACK 10 AUDIO
TITLE “I’m Alone”
PERFORMER “Deep Purple”
INDEX 00 35:41:38
INDEX 01 35:42:35
TRACK 11 AUDIO
TITLE “Demon’s Eye”
PERFORMER “Deep Purple”
INDEX 00 38:47:58
INDEX 01 38:48:38
TRACK 12 AUDIO
TITLE “Fireball”
PERFORMER “Deep Purple”
INDEX 00 44:00:50
INDEX 01 44:01:55


Spread the Download

Leave a Reply

Your email address will not be published. Required fields are marked *

Enter the text from the image below
 

This site uses Akismet to reduce spam. Learn how your comment data is processed.