Deep Purple – The Book Of Taliesyn (Japanese Edition)




No Cover available


Artist: Deep Purple
Year: 1968/1989
Genre: Rock
Notes: Discogs
Add. Notes: Japanese Edition
Watch Songs on: YouTube
Cover incl.: Yes
Encoder: FLAC
Bitrate: ~800 kBit/s (44.1 kHz/16 Bit/s)
Log & Cue incl.: Yes/Yes
Size: 294,7 MB
Password: “slam” (without ” “)


All Downloads/Hosters are compatible

Download 1
KatFile.com
Turbobit.net
Rapidgator.net
FileFactory.com
Download 2
KatFile.com
Turbobit.net
Rapidgator.net
FileFactory.com

Tracklist:

1 Listen, Learn, Read On 4:05
2 Hard Road 5:14
3 Kentucky Woman 4:46
4a Exposition 
4b We Can Work It Out 7:08
5 Shield 6:04
6 Anthem 6:32
7 River Deep, Mountain High 10:09

EAC-Log, CUE-Sheed & NFO:

Click to open spoiler
Exact Audio Copy V1.0 beta 4 from 7. December 2014

EAC extraction logfile from 9. January 2015, 22:54

Deep Purple / The Book Of Taliesyn (1989, 20P2-2602)

Used drive : ATAPI iHAS124 B Adapter: 1 ID: 0

Read mode : Secure
Utilize accurate stream : Yes
Defeat audio cache : Yes
Make use of C2 pointers : No

Read offset correction : 6
Overread into Lead-In and Lead-Out : No
Fill up missing offset samples with silence : Yes
Delete leading and trailing silent blocks : No
Null samples used in CRC calculations : Yes
Used interface : Installed external ASPI interface

Used output format : User Defined Encoder
Selected bitrate : 128 kBit/s
Quality : High
Add ID3 tag : Yes
Command line compressor : C:\Program Files (x86)\Exact Audio Copy\Flac\flac.exe
Additional command line options : -V -8 -T “Date=%year%” -T “Genre=%genre%” %source%

TOC of the extracted CD

Track | Start | Length | Start sector | End sector
———————————————————
1 | 0:00.00 | 4:06.10 | 0 | 18459
2 | 4:06.10 | 5:16.25 | 18460 | 42184
3 | 9:22.35 | 4:47.25 | 42185 | 63734
4 | 14:09.60 | 7:03.42 | 63735 | 95501
5 | 21:13.27 | 6:07.38 | 95502 | 123064
6 | 27:20.65 | 6:32.57 | 123065 | 152521
7 | 33:53.47 | 10:10.40 | 152522 | 198311

Range status and errors

Selected range

Filename G:\CD\Deep Purple – The Book Of Taliesyn.wav

Peak level 100.0 %
Extraction speed 5.3 X
Range quality 100.0 %
Test CRC B53143D8
Copy CRC B53143D8
Copy OK

No errors occurred

AccurateRip summary

Track 1 accurately ripped (confidence 3) [D78AFC1F] (AR v2)
Track 2 accurately ripped (confidence 3) [7381DD69] (AR v2)
Track 3 accurately ripped (confidence 3) [28E6A9D7] (AR v2)
Track 4 accurately ripped (confidence 3) [8DE745A8] (AR v2)
Track 5 accurately ripped (confidence 4) [D5B52CA2] (AR v2)
Track 6 accurately ripped (confidence 3) [57A24E9D] (AR v2)
Track 7 accurately ripped (confidence 3) [B635E9AA] (AR v2)

All tracks accurately ripped

End of status report

—- CUETools DB Plugin V2.1.4

[CTDB TOCID: hbZyM7qO77gNi8NAEobymvroGMQ-] found
Submit result: hbZyM7qO77gNi8NAEobymvroGMQ- has been confirmed
Track | CTDB Status
1 | (4/4) Accurately ripped
2 | (4/4) Accurately ripped
3 | (4/4) Accurately ripped
4 | (4/4) Accurately ripped
5 | (4/4) Accurately ripped
6 | (4/4) Accurately ripped
7 | (4/4) Accurately ripped

==== Log checksum D00DCA1434CF59F79D8591891D98E885BA39DCB2EF6019BD8BC993C65102285C ====

REM GENRE “Hard Rock”
REM DATE 1968
REM DISCID 530A5407
REM COMMENT “ExactAudioCopy v1.0b4”
PERFORMER “Deep Purple”
TITLE “The Book Of Taliesyn (1989, 20P2-2602)”
FILE “Deep Purple – The Book Of Taliesyn.flac” WAVE
TRACK 01 AUDIO
TITLE “Listen, Learn, Read On”
PERFORMER “Deep Purple”
INDEX 01 00:00:00
TRACK 02 AUDIO
TITLE “Hard Road”
PERFORMER “Deep Purple”
INDEX 00 04:03:22
INDEX 01 04:06:10
TRACK 03 AUDIO
TITLE “Kentucky Woman”
PERFORMER “Deep Purple”
INDEX 00 09:19:37
INDEX 01 09:22:35
TRACK 04 AUDIO
TITLE “(a) Exposition (b) We Can Work It Out”
PERFORMER “Deep Purple”
INDEX 00 14:06:17
INDEX 01 14:09:60
INDEX 02 17:02:07
TRACK 05 AUDIO
TITLE “The Shield”
PERFORMER “Deep Purple”
INDEX 00 21:12:35
INDEX 01 21:13:27
TRACK 06 AUDIO
TITLE “Anthem”
PERFORMER “Deep Purple”
INDEX 00 27:18:32
INDEX 01 27:20:65
TRACK 07 AUDIO
TITLE “River Deep, Mountain High”
PERFORMER “Deep Purple”
INDEX 00 33:52:15
INDEX 01 33:53:47


0

Publication author

offline 7 days

Chaos

3
Comments: 4Publics: 3565Registration: 02-02-2019
Spread the Download

Leave a Reply

Your email address will not be published. Required fields are marked *

Enter the text from the image below
 

This site uses Akismet to reduce spam. Learn how your comment data is processed.