Deep Purple – The Book Of Taliesyn




Artist: Deep Purple
Year: 1968/1989
Genre: Rock
Notes: Discogs
Add. Notes:
Cover incl.: Yes
Encoder: FLAC
Bitrate: ~800 kBit/s (44.1 kHz/16 Bit/s)
Log & Cue incl.: Yes
Size: 545,4 MB
Password: “slam” (without ” “)


All Downloads/Hosters are compatible

Download 1
KatFile.com
Rapidgator.net
NitroFlare.com
Turbobit.net
Download 2
KatFile.com
Rapidgator.net
NitroFlare.com
Turbobit.net
Download 3
KatFile.com
Rapidgator.net
NitroFlare.com
Turbobit.net

Tracklist:

1 - Listen, Learn, Read On - 4:04
2 - Wring That Neck - 5:14
3 - Kentucky Woman - 4:45
4 - Exposition - We Can Work It Out - (7:08)
5 - Shield - 6:03
6 - Anthem - 6:31
7 - River Deep, Mountain High - 10:08

EAC-Log, CUE-Sheed & NFO:

Click to open spoiler
Exact Audio Copy V0.99 prebeta 5 from 4. May 2009

Отчёт EAC об извлечении, выполненном 12. февраля 2011, 16:36

Deep Purple / The Book of Taliesyn

Дисковод: Optiarc DVD RW AD-7240S Adapter: 1 ID: 0

Режим чтения : Достоверность
Использование точного потока : Да
Отключение кэша аудио : Да
Использование указателей C2 : Нет

Коррекция смещения при чтении : 48
Способность читать области Lead-in и Lead-out : Нет
Заполнение пропущенных сэмплов тишиной : Да
Удаление блоков с тишиной в начале и конце : Нет
При вычислениях CRC использовались нулевые сэмплы : Да
Интерфейс : Встроенный Win32-интерфейс для Win NT/2000

Выходной формат : Пользовательский кодировщик
Выбранный битрейт : 768 kBit/s
Качество : Высокий
Добавление ID3-тэга : Нет
Утилита сжатия : C:\Program Files\Exact Audio Copy\FLAC\FLAC.EXE
Дополнительные параметры : -6 -V -T “ARTIST=%a” -T “TITLE=%t” -T “ALBUM=%g” -T “DATE=%y” -T “TRACKNUMBER=%n” -T “GENRE=%m” -T “COMMENT=%e” %s -o %d

TOC извлечённого CD

Трек | Старт | Длительность | Начальный сектор | Конечный сектор
———————————————————————
1 | 0:00.33 | 4:04.42 | 33 | 18374
2 | 4:05.00 | 5:14.03 | 18375 | 41927
3 | 9:19.03 | 4:45.62 | 41928 | 63364
4 | 14:04.65 | 7:08.03 | 63365 | 95467
5 | 21:12.68 | 6:03.50 | 95468 | 122742
6 | 27:16.43 | 6:31.47 | 122743 | 152114
7 | 33:48.15 | 10:08.73 | 152115 | 197787

Характеристики диапазона извлечения и сообщения об ошибках

Выбранный диапазон

Имя файла E:\music\Deep Purple 1 press\Deep Purple – The Book of Taliesyn 1968\Deep Purple – The Book of Taliesyn.wav

Пиковый уровень 95.4 %
Качество диапазона 100.0 %
CRC теста F36520E7
CRC копии F36520E7
Копирование… OK

Ошибок не произошло

AccurateRip: сводка

Трек 1 точное извлечение (доверие 12) [6888AB80]
Трек 2 точное извлечение (доверие 12) [D6CC3767]
Трек 3 точное извлечение (доверие 12) [605B5881]
Трек 4 точное извлечение (доверие 12) [D5B7DC8D]
Трек 5 точное извлечение (доверие 12) [DBBB2C5B]
Трек 6 точное извлечение (доверие 12) [40E65887]
Трек 7 точное извлечение (доверие 12) [ECCFC8AF]

Все треки извлечены точно

Конец отчёта

REM GENRE Rock
REM DATE 1968
REM DISCID 520A4D07
REM COMMENT “ExactAudioCopy v0.99pb5”
PERFORMER “Deep Purple”
TITLE “The Book of Taliesyn (1989, CDP 7 92408 2)”
FILE “Deep Purple – The Book of Taliesyn.flac” WAVE
TRACK 01 AUDIO
TITLE “Listen, Learn, Read On”
PERFORMER “Deep Purple”
INDEX 00 00:00:00
INDEX 01 00:00:33
TRACK 02 AUDIO
TITLE “Wring That Neck”
PERFORMER “Deep Purple”
INDEX 00 04:02:23
INDEX 01 04:05:00
TRACK 03 AUDIO
TITLE “Kentucky Woman”
PERFORMER “Deep Purple”
INDEX 00 09:17:10
INDEX 01 09:19:03
TRACK 04 AUDIO
TITLE “a) Exposition; b) We Can Work It Out”
PERFORMER “Deep Purple”
INDEX 00 14:02:03
INDEX 01 14:04:65
TRACK 05 AUDIO
TITLE “Shield”
PERFORMER “Deep Purple”
INDEX 00 21:10:20
INDEX 01 21:12:68
TRACK 06 AUDIO
TITLE “Anthem”
PERFORMER “Deep Purple”
INDEX 00 27:14:43
INDEX 01 27:16:43
TRACK 07 AUDIO
TITLE “River Deep, Mountain High”
PERFORMER “Deep Purple”
INDEX 00 33:45:13
INDEX 01 33:48:15


Leave a Reply

Your email address will not be published. Required fields are marked *

Enter the text from the image below
 

This site uses Akismet to reduce spam. Learn how your comment data is processed.