Deep Purple – The BBC Sessions 1968 – 1970 (Remastered)




No Cover available

Artist: Deep Purple
Year: 2011
Genre: Rock
Notes: Discogs
Add. Notes: Remastered
Watch Songs on: YouTube
Cover incl.: Yes
Encoder: FLAC
Bitrate: ~700 kBit/s (44.1 kHz/16 Bit/s)
Log & Cue incl.: Yes/Yes
Size: 367,4 MB
Password: “slam” (without ” “)


All Downloads/Hosters are compatible

Download 1
KatFile.com
Turbobit.net
Rapidgator.net
FileFactory.com
Download 2
KatFile.com
Turbobit.net
Rapidgator.net
FileFactory.com

Tracklist:

CD 1: Mk 1 1968-1969
Top Gear June 1968
1-1 Hush (Vsn One) 4:01
1-2 One More Rainy Day 2:52
1-3 Help! 5:21
Dave Symonds Show July 1968
1-4 And The Address 2:06
Top Gear February 1969
1-5 Hey Bop A Re Bop 3:31
1-6 Emmaretta 3:07
1-7 Wring That Neck 4:42
1-8 Brian Matthew Interviews Rod Evans 1:27
1-9 Hey Joe 4:02
1-10 It's All Over 4:14
Sounds Like Tony Brandon Show July 1969
1-11 The Painter (Vsn One) 2:18
1-12 Lalena 3:32
Chris Grant's Tasty Pop Sundae July 1969
1-13 The Painter (Vsn Two) 2:44
1-14 I'm So Glad 3:12
1-15 Hush (Vsn Four) 2:28

CD 2: Mk 2 1969-1970
Symonds On Sunday August 1969
2-1 Ricochet 3:07
2-2 Bird Has Flown 3:04
Stuart Henry Noise At Nine November 1969
2-3 Speed King 3:25
2-4 Jam Stew (Aka John Stew) 3:56
Mike Harding's Sounds Of The Seventies April 1970
2-5 Hard Lovin' Man 4:13
2-6 Bloodsucker 3:17
2-7 Living Wreck (Vsn Two) 2:57
Transcription Service September 1970
2-8 Brian Matthew Interviews Jon Lord 1:35
2-9 Black Night 3:28
2-10 Grabsplatter 4:32
2-11 Into The Fire 3:48
2-12 Child In Time 10:48

EAC-Log, CUE-Sheed & NFO:

Click to open spoiler
Exact Audio Copy V1.0 beta 3 from 29. August 2011

EAC extraction logfile from 25. July 2013, 20:40

Deep Purple / BBC Sessions 1968-1970 CD1

Used drive : ATAPI iHAS124 B Adapter: 2 ID: 0

Read mode : Secure
Utilize accurate stream : Yes
Defeat audio cache : Yes
Make use of C2 pointers : No

Read offset correction : 6
Overread into Lead-In and Lead-Out : No
Fill up missing offset samples with silence : Yes
Delete leading and trailing silent blocks : No
Null samples used in CRC calculations : Yes
Used interface : Native Win32 interface for Win NT & 2000

Used output format : User Defined Encoder
Selected bitrate : 1024 kBit/s
Quality : High
Add ID3 tag : No
Command line compressor : C:\Program Files (x86)\Exact Audio Copy\FLAC\FLAC.EXE
Additional command line options : -8 -V -T “ARTIST=%artist%” -T “TITLE=%title%” -T “ALBUM=%albumtitle%” -T “DATE=%year%” -T “TRACKNUMBER=%tracknr%” -T “GENRE=%genre%” -T “PERFORMER=%albuminterpret%” -T “COMPOSER=%composer%” %haslyrics%–tag-from-file=LYRICS=”%lyricsfile%”%haslyrics% -T “ALBUMARTIST=%albumartist%” -T “DISCNUMBER=%cdnumber%” -T “TOTALDISCS=%totalcds%” -T “TOTALTRACKS=%numtracks%” -T “COMMENT=%comment%” %source% -o %dest%

TOC of the extracted CD

Track | Start | Length | Start sector | End sector
———————————————————
1 | 0:00.00 | 4:07.58 | 0 | 18582
2 | 4:07.58 | 2:56.60 | 18583 | 31842
3 | 7:04.43 | 5:28.63 | 31843 | 56505
4 | 12:33.31 | 2:06.20 | 56506 | 65975
5 | 14:39.51 | 3:31.64 | 65976 | 81864
6 | 18:11.40 | 3:07.71 | 81865 | 95960
7 | 21:19.36 | 4:42.33 | 95961 | 117143
8 | 26:01.69 | 1:27.61 | 117144 | 123729
9 | 27:29.55 | 4:02.44 | 123730 | 141923
10 | 31:32.24 | 4:14.30 | 141924 | 161003
11 | 35:46.54 | 2:18.21 | 161004 | 171374
12 | 38:05.00 | 3:33.08 | 171375 | 187357
13 | 41:38.08 | 2:43.64 | 187358 | 199646
14 | 44:21.72 | 3:12.40 | 199647 | 214086
15 | 47:34.37 | 2:28.34 | 214087 | 225220

Range status and errors

Selected range

Filename G:\CD\Deep Purple – BBC Sessions 1968-1970 CD1.wav

Peak level 98.3 %
Extraction speed 5.7 X
Range quality 99.9 %
Test CRC 5774712C
Copy CRC 5774712C
Copy OK

No errors occurred

AccurateRip summary

Track 1 accurately ripped (confidence 33) [776FE480] (AR v2)
Track 2 accurately ripped (confidence 33) [AE1B5952] (AR v2)
Track 3 accurately ripped (confidence 33) [ABE83FE7] (AR v2)
Track 4 accurately ripped (confidence 33) [377970B1] (AR v2)
Track 5 accurately ripped (confidence 33) [4DCE43EA] (AR v2)
Track 6 accurately ripped (confidence 33) [6CD390A2] (AR v2)
Track 7 accurately ripped (confidence 33) [3E2D431D] (AR v2)
Track 8 accurately ripped (confidence 33) [D34F1D64] (AR v2)
Track 9 accurately ripped (confidence 33) [F488307C] (AR v2)
Track 10 accurately ripped (confidence 33) [02C99871] (AR v2)
Track 11 accurately ripped (confidence 33) [9E9E55C7] (AR v2)
Track 12 accurately ripped (confidence 33) [96600630] (AR v2)
Track 13 accurately ripped (confidence 33) [1BD45917] (AR v2)
Track 14 accurately ripped (confidence 33) [26E5A557] (AR v2)
Track 15 accurately ripped (confidence 33) [B5DDA78E] (AR v2)

All tracks accurately ripped

End of status report

==== Log checksum B41A52B3F955F76D198E7A4440039FCEE932BF1C7030F59C00A75A71A6112B0C ====

Exact Audio Copy V1.0 beta 3 from 29. August 2011

EAC extraction logfile from 1. September 2013, 17:26

Deep Purple / BBC Sessions 1968-1970 CD2

Used drive : ATAPI iHAS124 B Adapter: 2 ID: 0

Read mode : Secure
Utilize accurate stream : Yes
Defeat audio cache : Yes
Make use of C2 pointers : No

Read offset correction : 6
Overread into Lead-In and Lead-Out : No
Fill up missing offset samples with silence : Yes
Delete leading and trailing silent blocks : No
Null samples used in CRC calculations : Yes
Used interface : Native Win32 interface for Win NT & 2000

Used output format : User Defined Encoder
Selected bitrate : 1024 kBit/s
Quality : High
Add ID3 tag : No
Command line compressor : C:\Program Files (x86)\Exact Audio Copy\FLAC\FLAC.EXE
Additional command line options : -8 -V -T “ARTIST=%artist%” -T “TITLE=%title%” -T “ALBUM=%albumtitle%” -T “DATE=%year%” -T “TRACKNUMBER=%tracknr%” -T “GENRE=%genre%” -T “PERFORMER=%albuminterpret%” -T “COMPOSER=%composer%” %haslyrics%–tag-from-file=LYRICS=”%lyricsfile%”%haslyrics% -T “ALBUMARTIST=%albumartist%” -T “DISCNUMBER=%cdnumber%” -T “TOTALDISCS=%totalcds%” -T “TOTALTRACKS=%numtracks%” -T “COMMENT=%comment%” %source% -o %dest%

TOC of the extracted CD

Track | Start | Length | Start sector | End sector
———————————————————
1 | 0:00.00 | 3:07.24 | 0 | 14048
2 | 3:07.24 | 3:05.00 | 14049 | 27923
3 | 6:12.24 | 3:25.36 | 27924 | 43334
4 | 9:37.60 | 3:56.49 | 43335 | 61083
5 | 13:34.34 | 4:13.42 | 61084 | 80100
6 | 17:48.01 | 3:18.05 | 80101 | 94955
7 | 21:06.06 | 2:57.64 | 94956 | 108294
8 | 24:03.70 | 1:35.64 | 108295 | 115483
9 | 25:39.59 | 3:28.73 | 115484 | 131156
10 | 29:08.57 | 4:33.01 | 131157 | 151632
11 | 33:41.58 | 3:49.04 | 151633 | 168811
12 | 37:30.62 | 10:48.40 | 168812 | 217451

Range status and errors

Selected range

Filename G:\CD\Deep Purple – BBC Sessions 1968-1970 CD2.wav

Peak level 100.0 %
Extraction speed 5.7 X
Range quality 99.9 %
Test CRC 328405DD
Copy CRC 328405DD
Copy OK

No errors occurred

AccurateRip summary

Track 1 accurately ripped (confidence 32) [FE129382] (AR v2)
Track 2 accurately ripped (confidence 32) [26DD2152] (AR v2)
Track 3 accurately ripped (confidence 32) [D1A9F5B2] (AR v2)
Track 4 accurately ripped (confidence 32) [A38325AC] (AR v2)
Track 5 accurately ripped (confidence 32) [32B23D36] (AR v2)
Track 6 accurately ripped (confidence 32) [7B2F990E] (AR v2)
Track 7 accurately ripped (confidence 32) [8F8414B4] (AR v2)
Track 8 accurately ripped (confidence 32) [059F8278] (AR v2)
Track 9 accurately ripped (confidence 32) [412A7740] (AR v2)
Track 10 accurately ripped (confidence 32) [4BF18890] (AR v2)
Track 11 accurately ripped (confidence 32) [073F7983] (AR v2)
Track 12 accurately ripped (confidence 32) [ECD8D753] (AR v2)

All tracks accurately ripped

End of status report

==== Log checksum DE183A1E896BC39D628581540BBD351C2B3EC9819C9334C64A56DDDDDE57455F ====

REM GENRE “Hard Rock”
REM DATE 2011
REM DISCID D90BBA0F
REM COMMENT “ExactAudioCopy v1.0b3”
PERFORMER “Deep Purple”
TITLE “BBC Sessions 1968-1970 CD1 (2011, 2CD, 5099967955121)”
FILE “Deep Purple – BBC Sessions 1968-1970 CD1.flac” WAVE
TRACK 01 AUDIO
TITLE “Hush (Version One) (BBC Top Gear Session June 1968)”
PERFORMER “Deep Purple”
INDEX 01 00:00:00
TRACK 02 AUDIO
TITLE “One More Rainy Day (BBC Top Gear Session June 1968)”
PERFORMER “Deep Purple”
INDEX 00 04:06:69
INDEX 01 04:07:58
TRACK 03 AUDIO
TITLE “Help! (BBC Top Gear Session June 1968)”
PERFORMER “Deep Purple”
INDEX 00 07:02:55
INDEX 01 07:04:43
TRACK 04 AUDIO
TITLE “And The Address (BBC Dave Symonds Show Session July 1968)”
PERFORMER “Deep Purple”
INDEX 00 12:32:40
INDEX 01 12:33:31
TRACK 05 AUDIO
TITLE “Hey Bop A Re Bop (BBC Top Gear Session February 1969)”
PERFORMER “Deep Purple”
INDEX 00 14:39:34
INDEX 01 14:39:51
TRACK 06 AUDIO
TITLE “Emmaretta (BBC Top Gear Session February 1969)”
PERFORMER “Deep Purple”
INDEX 00 18:09:68
INDEX 01 18:11:40
TRACK 07 AUDIO
TITLE “Wring That Neck (BBC Top Gear Session February 1969)”
PERFORMER “Deep Purple”
INDEX 00 21:18:46
INDEX 01 21:19:36
TRACK 08 AUDIO
TITLE “Brian Matthew Interviews Rod Evans (BBC Top Gear Session February 1969)”
PERFORMER “Deep Purple”
INDEX 00 26:00:59
INDEX 01 26:01:69
TRACK 09 AUDIO
TITLE “Hey Joe (BBC Top Gear Session February 1969)”
PERFORMER “Deep Purple”
INDEX 01 27:29:55
TRACK 10 AUDIO
TITLE “It’s All Over (BBC Top Gear Session February 1969)”
PERFORMER “Deep Purple”
INDEX 01 31:32:24
TRACK 11 AUDIO
TITLE “The Painter (Version One) (BBC Sounds Like Tony Brandon Show Session July 1969)”
PERFORMER “Deep Purple”
INDEX 00 35:45:07
INDEX 01 35:46:54
TRACK 12 AUDIO
TITLE “Lalena (BBC Sounds Like Tony Brandon Show Session July 1969)”
PERFORMER “Deep Purple”
INDEX 00 38:03:37
INDEX 01 38:05:00
TRACK 13 AUDIO
TITLE “The Painter (Version Two) (BBC Chris Grant’s Tasty Pop Sundae Session July 1969)”
PERFORMER “Deep Purple”
INDEX 00 41:36:54
INDEX 01 41:38:08
TRACK 14 AUDIO
TITLE “I’m So Glad (BBC Chris Grant’s Tasty Pop Sundae Session July 1969)”
PERFORMER “Deep Purple”
INDEX 00 44:20:69
INDEX 01 44:21:72
TRACK 15 AUDIO
TITLE “Hush (Version Four) (BBC Chris Grant’s Tasty Pop Sundae Session July 1969)”
PERFORMER “Deep Purple”
INDEX 00 47:33:19
INDEX 01 47:34:37

REM GENRE “Hard Rock”
REM DATE 2011
REM DISCID 970B530C
REM COMMENT “ExactAudioCopy v1.0b3”
CATALOG 5099967955626
PERFORMER “Deep Purple”
TITLE “BBC Sessions 1968-1970 CD2 (2011, 2CD, 5099967955121)”
FILE “Deep Purple – BBC Sessions 1968-1970 CD2.flac” WAVE
TRACK 01 AUDIO
TITLE “Ricochet (BBC Symonds On Sunday August 1969)”
PERFORMER “Deep Purple”
ISRC GBCAD0201614
INDEX 01 00:00:00
TRACK 02 AUDIO
TITLE “Bird Has Flown (BBC Symonds On Sunday August 1969)”
PERFORMER “Deep Purple”
ISRC GBCAD0201618
INDEX 00 03:05:71
INDEX 01 03:07:24
TRACK 03 AUDIO
TITLE “Speed King (BBC Stuart Henry Noise At Nine November 1969)”
PERFORMER “Deep Purple”
ISRC GBCAD0201615
INDEX 00 06:11:03
INDEX 01 06:12:24
TRACK 04 AUDIO
TITLE “Jam Stew (aka John Stew) (BBC Stuart Henry Noise At Nine November 1969)”
PERFORMER “Deep Purple”
ISRC GBCAD0201622
INDEX 00 09:36:48
INDEX 01 09:37:60
TRACK 05 AUDIO
TITLE “Hard Lovin’ Man (BBC Harding’s Sounds Of The Seventies April 1970)”
PERFORMER “Deep Purple”
ISRC GBCAD0201624
INDEX 00 13:33:09
INDEX 01 13:34:34
TRACK 06 AUDIO
TITLE “Bloodsucker (BBC Harding’s Sounds Of The Seventies April 1970)”
PERFORMER “Deep Purple”
ISRC GBCAD0201619
INDEX 00 17:47:06
INDEX 01 17:48:01
TRACK 07 AUDIO
TITLE “Living Wreck (vsn two) (BBC Harding’s Sounds Of The Seventies April 1970)”
PERFORMER “Deep Purple”
ISRC GBCAD0201623
INDEX 00 21:03:23
INDEX 01 21:06:06
TRACK 08 AUDIO
TITLE “Brian Matthew Interviews Jon Lord (BBC Trnacription Service September 1970)”
PERFORMER “Deep Purple”
ISRC GBCAD0201625
INDEX 00 24:03:16
INDEX 01 24:03:70
TRACK 09 AUDIO
TITLE “Black Night (BBC Trnacription Service September 1970)”
PERFORMER “Deep Purple”
ISRC GBCAD0201617
INDEX 01 25:39:59
TRACK 10 AUDIO
TITLE “Grabsplatter (BBC Trnacription Service September 1970)”
PERFORMER “Deep Purple”
ISRC GBCAD0201616
INDEX 00 29:08:04
INDEX 01 29:08:57
TRACK 11 AUDIO
TITLE “Into The Fire (BBC Trnacription Service September 1970)”
PERFORMER “Deep Purple”
ISRC GBCAD0201621
INDEX 00 33:40:24
INDEX 01 33:41:58
TRACK 12 AUDIO
TITLE “Child In Time (BBC Trnacription Service September 1970)”
PERFORMER “Deep Purple”
ISRC GBCAD0201620
INDEX 00 37:30:27
INDEX 01 37:30:62


Leave a Reply

Your email address will not be published. Required fields are marked *

This site uses Akismet to reduce spam. Learn how your comment data is processed.