Deep Purple – The Battle Rages On… (Japanese Edition)




[Total: 0    Average: 0/5]

Artist: Deep Purple
Year: 1993
Genre: Rock
Notes: Discogs
Add. Notes: Japanese Edition
Cover incl.: Yes
Encoder: FLAC
Bitrate: ~1000 kBit/s (44.1 kHz/16 Bit/s)
Log & Cue incl.: Yes
Size: 470,8 MB
Password: “slam” (without ” “)


All Downloads/Hosters are compatible

Download 1
KatFile.com
Turbobit.net
FileFactory.com
Rapidgator.net
Download 2
KatFile.com
Turbobit.net
FileFactory.com
Rapidgator.net

Tracklist:

1 The Battle Rages On 5:57
2 Lick It Up 4:00
3 Anya 6:32
4 Talk About Love 4:08
5 Time To Kill 5:51
6 Ramshackle Man 5:34
7 A Twist In The Tale 4:18
8 Nasty Piece Of Work 4:36
9 Solitaire 4:42
10 One Man's Meat 4:39

EAC-Log, CUE-Sheed & NFO:

Click to open spoiler
Exact Audio Copy V1.0 beta 4 from 7. December 2014

EAC extraction logfile from 25. December 2014, 6:33

Deep Purple / The Battle Rages On… (BVCP-650)

Used drive : ATAPI iHAS124 B Adapter: 1 ID: 0

Read mode : Secure
Utilize accurate stream : Yes
Defeat audio cache : Yes
Make use of C2 pointers : No

Read offset correction : 6
Overread into Lead-In and Lead-Out : No
Fill up missing offset samples with silence : Yes
Delete leading and trailing silent blocks : No
Null samples used in CRC calculations : Yes
Used interface : Installed external ASPI interface

Used output format : User Defined Encoder
Selected bitrate : 128 kBit/s
Quality : High
Add ID3 tag : Yes
Command line compressor : C:\Program Files (x86)\Exact Audio Copy\Flac\flac.exe
Additional command line options : -V -8 -T “Date=%year%” -T “Genre=%genre%” %source%

TOC of the extracted CD

Track | Start | Length | Start sector | End sector
———————————————————
1 | 0:00.37 | 5:54.08 | 37 | 26594
2 | 5:54.45 | 4:00.20 | 26595 | 44614
3 | 9:54.65 | 6:31.47 | 44615 | 73986
4 | 16:26.37 | 4:07.55 | 73987 | 92566
5 | 20:34.17 | 5:51.13 | 92567 | 118904
6 | 26:25.30 | 5:34.22 | 118905 | 143976
7 | 31:59.52 | 4:17.23 | 143977 | 163274
8 | 36:17.00 | 4:36.42 | 163275 | 184016
9 | 40:53.42 | 4:42.13 | 184017 | 205179
10 | 45:35.55 | 4:38.70 | 205180 | 226099

Range status and errors

Selected range

Filename G:\CD\Deep Purple – The Battle Rages On….wav

Peak level 100.0 %
Extraction speed 5.4 X
Range quality 99.9 %
Test CRC F7C30CE8
Copy CRC F7C30CE8
Copy OK

No errors occurred

AccurateRip summary

Track 1 accurately ripped (confidence 9) [089269D6] (AR v2)
Track 2 accurately ripped (confidence 9) [C9E4138F] (AR v2)
Track 3 accurately ripped (confidence 9) [BC1A3EF7] (AR v2)
Track 4 accurately ripped (confidence 9) [6D7B5417] (AR v2)
Track 5 accurately ripped (confidence 9) [61B60F30] (AR v2)
Track 6 accurately ripped (confidence 9) [80D0D954] (AR v2)
Track 7 accurately ripped (confidence 9) [A1602C0A] (AR v2)
Track 8 accurately ripped (confidence 9) [DDA34FA4] (AR v2)
Track 9 accurately ripped (confidence 9) [A4FC03A0] (AR v2)
Track 10 accurately ripped (confidence 9) [56820A32] (AR v2)

All tracks accurately ripped

End of status report

—- CUETools DB Plugin V2.1.4

[CTDB TOCID: Uijmc8ZBCLCqXrQ6hNLVEJ3YyT4-] found
Submit result: already submitted
Track | CTDB Status
1 | (2/2) Accurately ripped
2 | (2/2) Accurately ripped
3 | (2/2) Accurately ripped
4 | (2/2) Accurately ripped
5 | (2/2) Accurately ripped
6 | (2/2) Accurately ripped
7 | (2/2) Accurately ripped
8 | (2/2) Accurately ripped
9 | (2/2) Accurately ripped
10 | (2/2) Accurately ripped

==== Log checksum D6A83E68CA014A48FE13F5E7A27A7760C5DD93C9CC56C8746D1A82A3E05D0CBB ====

REM GENRE “Hard Rock”
REM DATE 1993
REM DISCID A10BC60A
REM COMMENT “ExactAudioCopy v1.0b4”
CATALOG 0000000000000
PERFORMER “Deep Purple”
TITLE “The Battle Rages On… (1993, BVCP-650)”
FILE “Deep Purple – The Battle Rages On….flac” WAVE
TRACK 01 AUDIO
TITLE “The Battle Rages On”
PERFORMER “Deep Purple”
INDEX 00 00:00:00
INDEX 01 00:00:37
TRACK 02 AUDIO
TITLE “Lick It Up”
PERFORMER “Deep Purple”
INDEX 00 05:53:61
INDEX 01 05:54:45
TRACK 03 AUDIO
TITLE “Anya”
PERFORMER “Deep Purple”
INDEX 00 09:53:13
INDEX 01 09:54:65
TRACK 04 AUDIO
TITLE “Talk About Love”
PERFORMER “Deep Purple”
INDEX 01 16:26:37
TRACK 05 AUDIO
TITLE “Time To Kill”
PERFORMER “Deep Purple”
INDEX 00 20:33:43
INDEX 01 20:34:17
TRACK 06 AUDIO
TITLE “Ramshackle Man”
PERFORMER “Deep Purple”
INDEX 00 26:22:71
INDEX 01 26:25:30
TRACK 07 AUDIO
TITLE “A Twist In The Tale”
PERFORMER “Deep Purple”
INDEX 00 31:59:01
INDEX 01 31:59:52
TRACK 08 AUDIO
TITLE “Nasty Piece Of Work”
PERFORMER “Deep Purple”
INDEX 00 36:15:33
INDEX 01 36:17:00
TRACK 09 AUDIO
TITLE “Solitaire”
PERFORMER “Deep Purple”
INDEX 01 40:53:42
TRACK 10 AUDIO
TITLE “One Man’s Meat”
PERFORMER “Deep Purple”
INDEX 01 45:35:55


Spread the Download

Leave a Reply

Your email address will not be published. Required fields are marked *

Enter the text from the image below
 

This site uses Akismet to reduce spam. Learn how your comment data is processed.