Deep Purple – Stormbringer (Limited Remastered Japanese Edition)




No Cover available

Artist: Deep Purple
Year: 1974/2008
Genre: Rock
Notes: Discogs
Add. Notes: Limited Remastered Japanese Edition
Watch Songs on: YouTube
Cover incl.: Yes
Encoder: FLAC
Bitrate: ~1000 kBit/s (44.1 kHz/16 Bit/s)
Log & Cue incl.: Yes
Size: 688,6 MB
Password: “slam” (without ” “)


All Downloads/Hosters are compatible

Download 1
KatFile.com
Turbobit.net
FileFactory.com
Rapidgator.net
Download 2
KatFile.com
Turbobit.net
FileFactory.com
Rapidgator.net

Tracklist:

1 - Stormbringer - 4:03
2 - Love Dont Mean A Thing - 4:23
3 - Holy Man - 4:28
4 - Hold On - 5:05
5 - Lady Double Dealer - 3:19
6 - You Cant Do It Right (With The 
One You Love) - 3:24
7 - High Ball Shooter - 4:26
8 - The Gypsy - 4:13
9 - Soldier Of Fortune - 3:14

EAC-Log, CUE-Sheed & NFO:

Click to open spoiler
Exact Audio Copy V1.0 beta 4 from 7. December 2014

EAC extraction logfile from 29. January 2015, 20:50

Deep Purple / Stormbringer (1996, SHM-CD, WPCR-13116)

Used drive : Optiarc BD RW BD-5300S Adapter: 0 ID: 0

Read mode : Secure
Utilize accurate stream : Yes
Defeat audio cache : Yes
Make use of C2 pointers : No

Read offset correction : 6
Overread into Lead-In and Lead-Out : No
Fill up missing offset samples with silence : Yes
Delete leading and trailing silent blocks : No
Null samples used in CRC calculations : Yes
Used interface : Installed external ASPI interface

Used output format : User Defined Encoder
Selected bitrate : 128 kBit/s
Quality : High
Add ID3 tag : Yes
Command line compressor : C:\Program Files (x86)\Exact Audio Copy\Flac\flac.exe
Additional command line options : -V -8 -T “Date=%year%” -T “Genre=%genre%” %source%

TOC of the extracted CD

Track | Start | Length | Start sector | End sector
———————————————————
1 | 0:00.00 | 4:07.52 | 0 | 18576
2 | 4:07.52 | 4:26.08 | 18577 | 38534
3 | 8:33.60 | 4:32.05 | 38535 | 58939
4 | 13:05.65 | 5:09.00 | 58940 | 82114
5 | 18:14.65 | 3:23.10 | 82115 | 97349
6 | 21:38.00 | 3:27.00 | 97350 | 112874
7 | 25:05.00 | 4:29.72 | 112875 | 133121
8 | 29:34.72 | 4:07.35 | 133122 | 151681
9 | 33:42.32 | 3:16.58 | 151682 | 166439

Range status and errors

Selected range

Filename G:\CD\Deep Purple – Stormbringer.wav

Peak level 100.0 %
Extraction speed 2.9 X
Range quality 100.0 %
Test CRC 119E872B
Copy CRC 119E872B
Copy OK

No errors occurred

AccurateRip summary

Track 1 accurately ripped (confidence 8) [D09921D8] (AR v2)
Track 2 accurately ripped (confidence 8) [34835E6A] (AR v2)
Track 3 accurately ripped (confidence 8) [10C11EC1] (AR v2)
Track 4 accurately ripped (confidence 8) [DD888573] (AR v2)
Track 5 accurately ripped (confidence 8) [27A46AAA] (AR v2)
Track 6 accurately ripped (confidence 8) [2F806A93] (AR v2)
Track 7 accurately ripped (confidence 8) [DB3EF4CB] (AR v2)
Track 8 accurately ripped (confidence 8) [AF09C2AB] (AR v2)
Track 9 accurately ripped (confidence 8) [1459B218] (AR v2)

All tracks accurately ripped

End of status report

—- CUETools DB Plugin V2.1.4

[CTDB TOCID: WZs04CJN1mytVncxkR1owuuHiEE-] found
Submit result: WZs04CJN1mytVncxkR1owuuHiEE- has been confirmed
Track | CTDB Status
1 | ( 8/10) Accurately ripped
2 | ( 8/10) Accurately ripped
3 | ( 8/10) Accurately ripped
4 | ( 8/10) Accurately ripped
5 | ( 8/10) Accurately ripped
6 | ( 8/10) Accurately ripped
7 | ( 8/10) Accurately ripped
8 | ( 8/10) Accurately ripped
9 | ( 8/10) Accurately ripped

==== Log checksum E50904ED35D5F020FB7F161E56BC30AB75C2AA18BF81E24A691A659B86C10FAE ====

REM GENRE “Hard Rock”
REM DATE 1974
REM DISCID 7008AB09
REM COMMENT “ExactAudioCopy v1.0b4”
CATALOG 4943674061761
PERFORMER “Deep Purple”
TITLE “Stormbringer (2008, SHM-CD, WPCR-13116)”
FILE “Deep Purple – Stormbringer.flac” WAVE
TRACK 01 AUDIO
TITLE “Stormbringer”
PERFORMER “Deep Purple”
ISRC USWB19903567
INDEX 01 00:00:00
TRACK 02 AUDIO
TITLE “Love Don’t Mean A Thing”
PERFORMER “Deep Purple”
ISRC USWB10502141
INDEX 01 04:07:52
TRACK 03 AUDIO
TITLE “Holy Man”
PERFORMER “Deep Purple”
ISRC USWB10502142
INDEX 01 08:33:60
TRACK 04 AUDIO
TITLE “Hold On”
PERFORMER “Deep Purple”
ISRC USWB10201248
INDEX 01 13:05:65
TRACK 05 AUDIO
TITLE “Lady Double Dealer”
PERFORMER “Deep Purple”
ISRC USWB10502143
INDEX 00 18:12:70
INDEX 01 18:14:65
TRACK 06 AUDIO
TITLE “You Can’t Do It Right (With The One You Love)”
PERFORMER “Deep Purple”
ISRC USWB10502144
INDEX 01 21:38:00
TRACK 07 AUDIO
TITLE “High Ball Shooter”
PERFORMER “Deep Purple”
ISRC USWB10502145
INDEX 01 25:05:00
TRACK 08 AUDIO
TITLE “The Gypsy”
PERFORMER “Deep Purple”
ISRC USWB10502170
INDEX 01 29:34:72
TRACK 09 AUDIO
TITLE “Soldier Of Fortune”
PERFORMER “Deep Purple”
ISRC USWB10502171
INDEX 01 33:42:32


Leave a Reply

Your email address will not be published. Required fields are marked *

This site uses Akismet to reduce spam. Learn how your comment data is processed.