Deep Purple – Stormbringer (Reissue)




Artist: Deep Purple
Year: 1974/1988
Genre: Rock
Notes: Discogs
Add. Notes: Reissue
Cover incl.: Yes
Encoder: FLAC
Bitrate: ~900 kBit/s (44.1 kHz/16 Bit/s)
Log & Cue incl.: Yes
Size: 246,4 MB
Password: “slam” (without ” “)


All Downloads/Hosters are compatible

Download 1
KatFile.com
Turbobit.net
FileFactory.com
Rapidgator.net
Download 2
KatFile.com
Turbobit.net
FileFactory.com
Rapidgator.net

Tracklist:

1 - Stormbringer - 4:06
2 - Love Don't Mean A Thing - 4:24
3 - Holy Man - 4:30
4 - Hold On - 5:07
5 - Lady Double Dealer - 3:21
6 - You Can't Do It Right - 3:24
7 - High Ball Shooter - 4:28
8 - The Gypsy - 4:03
9 - Soldier Of Fortune - 3:14

EAC-Log, CUE-Sheed & NFO:

Click to open spoiler
Exact Audio Copy V0.99 prebeta 5 from 4. May 2009

Отчёт EAC об извлечении, выполненном 17. августа 2010, 19:50

Deep Purple / Stormbringer

Дисковод: MATSHITADVD-RAM UJ-850S Adapter: 1 ID: 0

Режим чтения : Достоверность
Использование точного потока : Да
Отключение кэша аудио : Да
Использование указателей C2 : Нет

Коррекция смещения при чтении : 102
Способность читать области Lead-in и Lead-out : Нет
Заполнение пропущенных сэмплов тишиной : Да
Удаление блоков с тишиной в начале и конце : Нет
При вычислениях CRC использовались нулевые сэмплы : Да
Интерфейс : Встроенный Win32-интерфейс для Win NT/2000

Выходной формат : Пользовательский кодировщик
Выбранный битрейт : 768 kBit/s
Качество : Высокий
Добавление ID3-тэга : Нет
Утилита сжатия : C:\Program Files\Exact Audio Copy\Flac\flac.exe
Дополнительные параметры : -6 -V -T “ARTIST=%a” -T “TITLE=%t” -T “ALBUM=%g” -T “DATE=%y” -T “TRACKNUMBER=%n” -T “GENRE=%m” -T “COMMENT=%e” %s -o %d

TOC извлечённого CD

Трек | Старт | Длительность | Начальный сектор | Конечный сектор
———————————————————————
1 | 0:00.33 | 4:06.25 | 33 | 18507
2 | 4:06.58 | 4:23.57 | 18508 | 38289
3 | 8:30.40 | 4:30.10 | 38290 | 58549
4 | 13:00.50 | 5:06.58 | 58550 | 81557
5 | 18:07.33 | 3:21.30 | 81558 | 96662
6 | 21:28.63 | 3:23.50 | 96663 | 111937
7 | 24:52.38 | 4:27.55 | 111938 | 132017
8 | 29:20.18 | 4:02.60 | 132018 | 150227
9 | 33:23.03 | 3:13.50 | 150228 | 164752

Характеристики диапазона извлечения и сообщения об ошибках

Выбранный диапазон

Имя файла G:\ALIK\Root\MP3\Deep Purple Stormbringer\Deep Purple – Stormbringer.wav

Пиковый уровень 96.8 %
Качество диапазона 100.0 %
CRC теста FCDD2E76
CRC копии FCDD2E76
Копирование… OK

Ошибок не произошло

AccurateRip: сводка

Трек 1 точное извлечение (доверие 102) [8B5804FA]
Трек 2 точное извлечение (доверие 100) [4655A821]
Трек 3 точное извлечение (доверие 98) [E1C5DDE5]
Трек 4 точное извлечение (доверие 98) [45918547]
Трек 5 точное извлечение (доверие 98) [6AB3A3CB]
Трек 6 точное извлечение (доверие 97) [884A5B9E]
Трек 7 точное извлечение (доверие 97) [756D0B08]
Трек 8 точное извлечение (доверие 99) [E9B6293E]
Трек 9 точное извлечение (доверие 102) [379D826B]

Все треки извлечены точно

Конец отчёта

REM GENRE “Hard Rock”
REM DATE 1974
REM DISCID 70089409
REM COMMENT “ExactAudioCopy v0.99pb5”
PERFORMER “Deep Purple”
TITLE “Stormbringer (1988, CDP 7 91084 2)”
FILE “Deep Purple – Stormbringer.flac” WAVE
TRACK 01 AUDIO
TITLE “Stormbringer”
PERFORMER “Deep Purple”
INDEX 00 00:00:00
INDEX 01 00:00:33
TRACK 02 AUDIO
TITLE “Love Don’t Mean AThing”
PERFORMER “Deep Purple”
INDEX 00 04:05:70
INDEX 01 04:06:58
TRACK 03 AUDIO
TITLE “Holy Man”
PERFORMER “Deep Purple”
INDEX 00 08:27:60
INDEX 01 08:30:40
TRACK 04 AUDIO
TITLE “Hold On”
PERFORMER “Deep Purple”
INDEX 00 12:59:03
INDEX 01 13:00:50
TRACK 05 AUDIO
TITLE “Lady Double Dealer”
PERFORMER “Deep Purple”
INDEX 00 18:05:30
INDEX 01 18:07:33
TRACK 06 AUDIO
TITLE “You Can’t Do It Right”
PERFORMER “Deep Purple”
INDEX 00 21:28:30
INDEX 01 21:28:63
TRACK 07 AUDIO
TITLE “High Ball Shooter”
PERFORMER “Deep Purple”
INDEX 00 24:51:13
INDEX 01 24:52:38
TRACK 08 AUDIO
TITLE “The Gypsy”
PERFORMER “Deep Purple”
INDEX 00 29:18:63
INDEX 01 29:20:18
TRACK 09 AUDIO
TITLE “Soldier Of Fortune”
PERFORMER “Deep Purple”
INDEX 00 33:21:10
INDEX 01 33:23:03


Leave a Reply

Your email address will not be published. Required fields are marked *

This site uses Akismet to reduce spam. Learn how your comment data is processed.