Deep Purple – Slaves And Masters




Artist: Deep Purple
Year: 1990
Genre: Rock
Notes: Discogs
Add. Notes:
Cover incl.: Yes
Encoder: FLAC
Bitrate: ~1000 kBit/s (44.1 kHz/16 Bit/s)
Log & Cue incl.: Yes
Size: 347 MB
Password: “slam” (without ” “)


All Downloads/Hosters are compatible

Download 1
KatFile.com
Turbobit.net
FileFactory.com
Rapidgator.net
Download 2
KatFile.com
Turbobit.net
FileFactory.com
Rapidgator.net

Tracklist:

1 - King Of Dreams - 5:30
2 - The Cut Runs Deep - 5:42
3 - Fire In The Basement - 4:43
4 - Truth Hurts - 5:14
5 - Breakfast In Bed - 5:16
6 - Love Conquers All - 3:47
7 - Fortuneteller - 5:45
8 - Too Much Is Not Enough - 4:19
9 - Wicked Ways - 6:35

EAC-Log, CUE-Sheed & NFO:

Click to open spoiler
Exact Audio Copy V1.0 beta 3 from 29. August 2011

EAC extraction logfile from 19. July 2013, 7:31

Deep Purple / Slaves And Masters

Used drive : ATAPI iHAS124 B Adapter: 2 ID: 0

Read mode : Secure
Utilize accurate stream : Yes
Defeat audio cache : Yes
Make use of C2 pointers : No

Read offset correction : 6
Overread into Lead-In and Lead-Out : No
Fill up missing offset samples with silence : Yes
Delete leading and trailing silent blocks : No
Null samples used in CRC calculations : Yes
Used interface : Native Win32 interface for Win NT & 2000

Used output format : User Defined Encoder
Selected bitrate : 1024 kBit/s
Quality : High
Add ID3 tag : No
Command line compressor : C:\Program Files (x86)\Exact Audio Copy\FLAC\FLAC.EXE
Additional command line options : -8 -V -T “ARTIST=%artist%” -T “TITLE=%title%” -T “ALBUM=%albumtitle%” -T “DATE=%year%” -T “TRACKNUMBER=%tracknr%” -T “GENRE=%genre%” -T “PERFORMER=%albuminterpret%” -T “COMPOSER=%composer%” %haslyrics%–tag-from-file=LYRICS=”%lyricsfile%”%haslyrics% -T “ALBUMARTIST=%albumartist%” -T “DISCNUMBER=%cdnumber%” -T “TOTALDISCS=%totalcds%” -T “TOTALTRACKS=%numtracks%” -T “COMMENT=%comment%” %source% -o %dest%

TOC of the extracted CD

Track | Start | Length | Start sector | End sector
———————————————————
1 | 0:00.33 | 5:28.07 | 33 | 24639
2 | 5:28.40 | 5:42.48 | 24640 | 50337
3 | 11:11.13 | 4:43.70 | 50338 | 71632
4 | 15:55.08 | 5:14.47 | 71633 | 95229
5 | 21:09.55 | 5:17.35 | 95230 | 119039
6 | 26:27.15 | 3:47.20 | 119040 | 136084
7 | 30:14.35 | 5:48.50 | 136085 | 162234
8 | 36:03.10 | 4:18.03 | 162235 | 181587
9 | 40:21.13 | 6:33.45 | 181588 | 211107

Range status and errors

Selected range

Filename G:\CD\Deep Purple – Slaves And Masters.wav

Peak level 100.0 %
Extraction speed 3.0 X
Range quality 100.0 %
Test CRC DD1B5354
Copy CRC DD1B5354
Copy OK

No errors occurred

AccurateRip summary

Track 1 accurately ripped (confidence 3) [D7A3787E] (AR v1)
Track 2 accurately ripped (confidence 3) [A3AAD15B] (AR v1)
Track 3 accurately ripped (confidence 3) [5E0FA9B6] (AR v1)
Track 4 accurately ripped (confidence 3) [4D424656] (AR v1)
Track 5 accurately ripped (confidence 3) [74BEDD4E] (AR v1)
Track 6 accurately ripped (confidence 3) [B89DF4AF] (AR v1)
Track 7 accurately ripped (confidence 3) [A04D6DA5] (AR v1)
Track 8 accurately ripped (confidence 3) [0C71447F] (AR v1)
Track 9 accurately ripped (confidence 3) [084E1BEA] (AR v1)

All tracks accurately ripped

End of status report

==== Log checksum 0B3CA0498A11DEA6C4BB5015369F35A07BEE5744AE7D90B9A4B205DC6B2D7978 ====

REM GENRE “Hard Rock”
REM DATE 1990
REM DISCID 780AFE09
REM COMMENT “ExactAudioCopy v1.0b3”
PERFORMER “Deep Purple”
TITLE “Slaves And Masters (1990, 74321187192)”
FILE “Deep Purple – Slaves And Masters.flac” WAVE
TRACK 01 AUDIO
TITLE “King Of Dreams”
PERFORMER “Deep Purple”
INDEX 00 00:00:00
INDEX 01 00:00:33
TRACK 02 AUDIO
TITLE “The Cut Runs Deep”
PERFORMER “Deep Purple”
INDEX 00 05:26:28
INDEX 01 05:28:40
TRACK 03 AUDIO
TITLE “Fire In The Basement”
PERFORMER “Deep Purple”
INDEX 01 11:11:13
TRACK 04 AUDIO
TITLE “Truth Hurts”
PERFORMER “Deep Purple”
INDEX 00 15:54:10
INDEX 01 15:55:08
TRACK 05 AUDIO
TITLE “Breakfast In Bed”
PERFORMER “Deep Purple”
INDEX 00 21:08:73
INDEX 01 21:09:55
TRACK 06 AUDIO
TITLE “Love Conquers All”
PERFORMER “Deep Purple”
INDEX 00 26:25:53
INDEX 01 26:27:15
TRACK 07 AUDIO
TITLE “Fortuneteller”
PERFORMER “Deep Purple”
INDEX 00 30:12:20
INDEX 01 30:14:35
TRACK 08 AUDIO
TITLE “Too Much Is Not Enough”
PERFORMER “Deep Purple”
INDEX 01 36:03:10
TRACK 09 AUDIO
TITLE “Wicked Ways”
PERFORMER “Deep Purple”
INDEX 00 40:19:43
INDEX 01 40:21:13


Leave a Reply

Your email address will not be published. Required fields are marked *

This site uses Akismet to reduce spam. Learn how your comment data is processed.