Deep Purple – Slaves And Masters (Remastered)




Artist: Deep Purple
Year: 1990/2013
Genre: Rock
Notes: Discogs
Add. Notes: Remastered
Encoder: FLAC
Bitrate: ~900 kBit/s (44.1 kHz/16 Bit/s)
Size: 488 MB
Password: “slam” (without ” “)


http://www.share-online.biz/dl/CQJ52WPPNE1 http://www.share-online.biz/dl/K3T52WPP0G
https://rapidgator.net/file/6dbb6493e6a938e9f566dd45c3335f89/DeePur-1990SlaAnMas.part1.rar https://rapidgator.net/file/dca9ad7e20449713f44e7ba56652b871/DeePur-1990SlaAnMas.part2.rar
https://ayefiles.com/yfz22owrmjd5/DeePur-1990SlaAnMas.part1.rar.html https://ayefiles.com/ad3tz2agxkes/DeePur-1990SlaAnMas.part2.rar.html
Onlinestatus: Turbobit.net Rapidgator.net AyeFiles.com

Tracklist:

1 - King Of Dreams - 5:28
2 - The Cut Runs Deep - 5:42
3 - Fire In The Basement - 4:43
4 - Truth Hurts - 5:15
5 - Breakfast In Bed - 5:17
6 - Love Conquers All - 3:47
7 - Fortuneteller - 5:49
8 - Too Much Is Not Enough - 4:18
9 - Wicked Ways - 6:37
Bonus Tracks
10 - Love Conquers All (Single Edit) - 
3:25
11 - King Of Dreams (Single Edit) - 
4:51
12 - Slow Down Sister (Single B-
Side) - 5:57

EAC-Log, CUE-Sheed & NFO:

Click to open spoiler

Read offset correction : 6
Overread into Lead-In and Lead-Out : No
Fill up missing offset samples with silence : Yes
Delete leading and trailing silent blocks : No
Null samples used in CRC calculations : Yes
Used interface : Native Win32 interface for Win NT & 2000

Used output format : User Defined Encoder
Selected bitrate : 1024 kBit/s
Quality : High
Add ID3 tag : No
Command line compressor : C:\Program Files (x86)\Exact Audio Copy\FLAC\FLAC.EXE
Additional command line options : -8 -V -T “ARTIST=%artist%” -T “TITLE=%title%” -T “ALBUM=%albumtitle%” -T “DATE=%year%” -T “TRACKNUMBER=%tracknr%” -T “GENRE=%genre%” -T “PERFORMER=%albuminterpret%” -T “COMPOSER=%composer%” %haslyrics%–tag-from-file=LYRICS=”%lyricsfile%”%haslyrics% -T “ALBUMARTIST=%albumartist%” -T “DISCNUMBER=%cdnumber%” -T “TOTALDISCS=%totalcds%” -T “TOTALTRACKS=%numtracks%” -T “COMMENT=%comment%” %source% -o %dest%

TOC of the extracted CD

Track | Start | Length | Start sector | End sector
———————————————————
1 | 0:00.00 | 5:27.69 | 0 | 24593
2 | 5:27.69 | 5:42.21 | 24594 | 50264
3 | 11:10.15 | 4:43.17 | 50265 | 71506
4 | 15:53.32 | 5:14.56 | 71507 | 95112
5 | 21:08.13 | 5:17.28 | 95113 | 118915
6 | 26:25.41 | 3:47.08 | 118916 | 135948
7 | 30:12.49 | 5:49.06 | 135949 | 162129
8 | 36:01.55 | 4:17.52 | 162130 | 181456
9 | 40:19.32 | 6:36.59 | 181457 | 211215
10 | 46:56.16 | 3:25.28 | 211216 | 226618
11 | 50:21.44 | 4:51.15 | 226619 | 248458
12 | 55:12.59 | 5:56.45 | 248459 | 275203

Range status and errors

Selected range

Filename G:\CD\Deep Purple – Slaves And Masters.wav

Peak level 97.7 %
Extraction speed 5.8 X
Range quality 100.0 %
Test CRC 47CF33C6
Copy CRC 47CF33C6
Copy OK

No errors occurred

AccurateRip summary

Track 1 not present in database
Track 2 not present in database
Track 3 not present in database
Track 4 not present in database
Track 5 not present in database
Track 6 not present in database
Track 7 not present in database
Track 8 not present in database
Track 9 not present in database
Track 10 not present in database
Track 11 not present in database
Track 12 not present in database

None of the tracks are present in the AccurateRip database

End of status report

==== Log checksum DC2C63FB3B3528FB7C93BC1AB2CF4B7583366F9592D279772BD079884DC12FAB ====

REM GENRE “Hard Rock”
REM DATE 1990
REM DISCID 9A0E550C
REM COMMENT “ExactAudioCopy v1.0b3”
PERFORMER “Deep Purple”
TITLE “Slaves And Masters (2013, HNECD021)”
FILE “Deep Purple – Slaves And Masters.flac” WAVE
TRACK 01 AUDIO
TITLE “King Of Dreams”
PERFORMER “Deep Purple”
ISRC USBI10000312
INDEX 01 00:00:00
TRACK 02 AUDIO
TITLE “The Cut Runs Deep”
PERFORMER “Deep Purple”
ISRC USBI11100003
INDEX 00 05:26:21
INDEX 01 05:27:69
TRACK 03 AUDIO
TITLE “Fire In The Basement”
PERFORMER “Deep Purple”
ISRC USBI11100004
INDEX 01 11:10:15
TRACK 04 AUDIO
TITLE “Truth Hurts”
PERFORMER “Deep Purple”
ISRC USBI11100005
INDEX 00 15:52:58
INDEX 01 15:53:32
TRACK 05 AUDIO
TITLE “Breakfast In Bed”
PERFORMER “Deep Purple”
ISRC USBI11100006
INDEX 00 21:06:34
INDEX 01 21:08:13
TRACK 06 AUDIO
TITLE “Love Conquers All”
PERFORMER “Deep Purple”
ISRC USRC10000115
INDEX 00 26:24:01
INDEX 01 26:25:41
TRACK 07 AUDIO
TITLE “Fortuneteller”
PERFORMER “Deep Purple”
ISRC JPBV00800355
INDEX 00 30:10:36
INDEX 01 30:12:49
TRACK 08 AUDIO
TITLE “Too Much Is Not Enough”
PERFORMER “Deep Purple”
ISRC USBI11100007
INDEX 01 36:01:55
TRACK 09 AUDIO
TITLE “Wicked Ways”
PERFORMER “Deep Purple”
ISRC USBI11100008
INDEX 00 40:17:61
INDEX 01 40:19:32
TRACK 10 AUDIO
TITLE “Love Conquers All (single edit)”
PERFORMER “Deep Purple”
ISRC USRC19000000
INDEX 00 46:52:71
INDEX 01 46:56:16
TRACK 11 AUDIO
TITLE “King Of Dreams (single edit)”
PERFORMER “Deep Purple”
ISRC USRC11300330
INDEX 00 50:19:30
INDEX 01 50:21:44
TRACK 12 AUDIO
TITLE “Slow Down Sister (single B-side)”
PERFORMER “Deep Purple”
ISRC USBI11100011
INDEX 00 55:10:49
INDEX 01 55:12:59

Leave a Reply

Your email address will not be published. Required fields are marked *

Enter the text from the image below
 

This site uses Akismet to reduce spam. Learn how your comment data is processed.