Deep Purple – Singles A’s & B’s




No Cover available

Artist: Deep Purple
Year: 1978/1993
Genre: Rock
Notes: Discogs
Add. Notes:
Watch Songs on: YouTube
Cover incl.: Yes
Encoder: FLAC
Bitrate: ~800 kBit/s (44.1 kHz/16 Bit/s)
Log & Cue incl.: Yes/Yes
Size: 512,8 MB
Password: “slam” (without ” “)


All Downloads/Hosters are compatible

Download 1
KatFile.com
Turbobit.net
Rapidgator.net
DoUploads.net
Download 2
KatFile.com
Turbobit.net
Rapidgator.net
DoUploads.net

Tracklist:

1 Hush 4:25
2 One More Rainy Day 3:39
3 Kentucky Woman (Single Edit) 4:04
4 Emmaretta 3:00
5 The Bird Has Flown (US Single Version) 2:55
6 Hallelujah 3:44
7 Speed King (Single Version) 4:26
8 Black Night 3:29
9 Strange Kind Of Woman 3:50
10 I'm Alone 3:06
11 Fireball 3:22
12 Demon's Eye 5:13
13 Never Before 3:31
14 When A Blind Man Cries 3:32
15 Smoke On The Water (US Edit) 3:48
16 Black Night (Live) 5:00
17 Might Just Take Your Life 3:35
18 Coronarias Redig 4:54
19 You Keep On Moving 4:29
20 Love Child 3:04

EAC-Log, CUE-Sheed & NFO:

Click to open spoiler
Exact Audio Copy V1.0 beta 3 from 29. August 2011

EAC extraction logfile from 15. August 2013, 7:46

Deep Purple / Singles A’s & B’s

Used drive : ATAPI iHAS124 B Adapter: 2 ID: 0

Read mode : Secure
Utilize accurate stream : Yes
Defeat audio cache : Yes
Make use of C2 pointers : No

Read offset correction : 6
Overread into Lead-In and Lead-Out : No
Fill up missing offset samples with silence : Yes
Delete leading and trailing silent blocks : No
Null samples used in CRC calculations : Yes
Used interface : Native Win32 interface for Win NT & 2000

Used output format : User Defined Encoder
Selected bitrate : 1024 kBit/s
Quality : High
Add ID3 tag : No
Command line compressor : C:\Program Files (x86)\Exact Audio Copy\FLAC\FLAC.EXE
Additional command line options : -8 -V -T “ARTIST=%artist%” -T “TITLE=%title%” -T “ALBUM=%albumtitle%” -T “DATE=%year%” -T “TRACKNUMBER=%tracknr%” -T “GENRE=%genre%” -T “PERFORMER=%albuminterpret%” -T “COMPOSER=%composer%” %haslyrics%–tag-from-file=LYRICS=”%lyricsfile%”%haslyrics% -T “ALBUMARTIST=%albumartist%” -T “DISCNUMBER=%cdnumber%” -T “TOTALDISCS=%totalcds%” -T “TOTALTRACKS=%numtracks%” -T “COMMENT=%comment%” %source% -o %dest%

TOC of the extracted CD

Track | Start | Length | Start sector | End sector
———————————————————
1 | 0:00.32 | 4:24.45 | 32 | 19876
2 | 4:25.02 | 3:38.70 | 19877 | 36296
3 | 8:03.72 | 4:04.05 | 36297 | 54601
4 | 12:08.02 | 3:00.13 | 54602 | 68114
5 | 15:08.15 | 2:54.50 | 68115 | 81214
6 | 18:02.65 | 3:44.07 | 81215 | 98021
7 | 21:46.72 | 4:26.40 | 98022 | 118011
8 | 26:13.37 | 3:28.55 | 118012 | 133666
9 | 29:42.17 | 3:49.48 | 133667 | 150889
10 | 33:31.65 | 3:06.05 | 150890 | 164844
11 | 36:37.70 | 3:21.70 | 164845 | 179989
12 | 39:59.65 | 5:12.72 | 179990 | 203461
13 | 45:12.62 | 3:30.48 | 203462 | 219259
14 | 48:43.35 | 3:32.35 | 219260 | 235194
15 | 52:15.70 | 3:48.00 | 235195 | 252294
16 | 56:03.70 | 4:59.67 | 252295 | 274786
17 | 61:03.62 | 3:35.00 | 274787 | 290911
18 | 64:38.62 | 4:54.00 | 290912 | 312961
19 | 69:32.62 | 4:29.05 | 312962 | 333141
20 | 74:01.67 | 3:04.58 | 333142 | 346999

Range status and errors

Selected range

Filename G:\CD\Deep Purple – Singles A’s & B’s.wav

Peak level 100.0 %
Extraction speed 6.7 X
Range quality 100.0 %
Test CRC 142CA2EB
Copy CRC 142CA2EB
Copy OK

No errors occurred

AccurateRip summary

Track 1 accurately ripped (confidence 3) [0294D8C6] (AR v2)
Track 2 accurately ripped (confidence 3) [F8B1CC6B] (AR v2)
Track 3 accurately ripped (confidence 3) [CF3C3F8B] (AR v2)
Track 4 accurately ripped (confidence 3) [C318618F] (AR v2)
Track 5 accurately ripped (confidence 3) [8298F74A] (AR v2)
Track 6 accurately ripped (confidence 3) [F45E161A] (AR v2)
Track 7 accurately ripped (confidence 3) [66C009A7] (AR v2)
Track 8 accurately ripped (confidence 3) [EDB749C3] (AR v2)
Track 9 accurately ripped (confidence 3) [76173890] (AR v2)
Track 10 accurately ripped (confidence 3) [7DC77745] (AR v2)
Track 11 accurately ripped (confidence 3) [616591C9] (AR v2)
Track 12 accurately ripped (confidence 3) [D7831507] (AR v2)
Track 13 accurately ripped (confidence 3) [4C013F23] (AR v2)
Track 14 accurately ripped (confidence 3) [03C998EB] (AR v2)
Track 15 accurately ripped (confidence 3) [2BF182B3] (AR v2)
Track 16 accurately ripped (confidence 3) [EB3E0F71] (AR v2)
Track 17 accurately ripped (confidence 3) [CD2D6435] (AR v2)
Track 18 accurately ripped (confidence 3) [D6B5CE35] (AR v2)
Track 19 accurately ripped (confidence 3) [65EF47F2] (AR v2)
Track 20 accurately ripped (confidence 3) [6AA8AEBB] (AR v2)

All tracks accurately ripped

End of status report

==== Log checksum 7BB44BB3EC9BA12AF53929D1CB1F8841DB52BE6732CA70819E1C91C4500175C3 ====

REM GENRE “Hard Rock”
REM DATE 1993
REM DISCID 1D121214
REM COMMENT “ExactAudioCopy v1.0b3”
PERFORMER “Deep Purple”
TITLE “Singles A’s & B’s (1993, 077778100928)”
FILE “Deep Purple – Singles A’s & B’s.flac” WAVE
TRACK 01 AUDIO
TITLE “Hush”
PERFORMER “Deep Purple”
INDEX 00 00:00:00
INDEX 01 00:00:32
TRACK 02 AUDIO
TITLE “One More Rainy Day”
PERFORMER “Deep Purple”
INDEX 00 04:23:62
INDEX 01 04:25:02
TRACK 03 AUDIO
TITLE “Kentucky Woman (single edit)”
PERFORMER “Deep Purple”
INDEX 00 08:02:60
INDEX 01 08:03:72
TRACK 04 AUDIO
TITLE “Emmaretta”
PERFORMER “Deep Purple”
INDEX 00 12:05:50
INDEX 01 12:08:02
TRACK 05 AUDIO
TITLE “The Bird Has Flown (US single version)”
PERFORMER “Deep Purple”
INDEX 00 15:06:52
INDEX 01 15:08:15
TRACK 06 AUDIO
TITLE “Hallelujah”
PERFORMER “Deep Purple”
INDEX 00 18:00:35
INDEX 01 18:02:65
TRACK 07 AUDIO
TITLE “Speed King (single version)”
PERFORMER “Deep Purple”
INDEX 00 21:45:12
INDEX 01 21:46:72
TRACK 08 AUDIO
TITLE “Black Night”
PERFORMER “Deep Purple”
INDEX 00 26:11:20
INDEX 01 26:13:37
TRACK 09 AUDIO
TITLE “Strange Kind Of Woman”
PERFORMER “Deep Purple”
INDEX 00 29:39:42
INDEX 01 29:42:17
TRACK 10 AUDIO
TITLE “I’m Alone”
PERFORMER “Deep Purple”
INDEX 00 33:29:22
INDEX 01 33:31:65
TRACK 11 AUDIO
TITLE “Fireball”
PERFORMER “Deep Purple”
INDEX 00 36:36:47
INDEX 01 36:37:70
TRACK 12 AUDIO
TITLE “Demon’s Eye”
PERFORMER “Deep Purple”
INDEX 00 39:58:40
INDEX 01 39:59:65
TRACK 13 AUDIO
TITLE “Never Before”
PERFORMER “Deep Purple”
INDEX 00 45:11:30
INDEX 01 45:12:62
TRACK 14 AUDIO
TITLE “When A Blind Man Cries”
PERFORMER “Deep Purple”
INDEX 00 48:41:17
INDEX 01 48:43:35
TRACK 15 AUDIO
TITLE “Smoke On The Water (US edit)”
PERFORMER “Deep Purple”
INDEX 00 52:14:60
INDEX 01 52:15:70
TRACK 16 AUDIO
TITLE “Black Night (live)”
PERFORMER “Deep Purple”
INDEX 00 56:01:72
INDEX 01 56:03:70
TRACK 17 AUDIO
TITLE “Might Just Take Your Life”
PERFORMER “Deep Purple”
INDEX 00 61:02:00
INDEX 01 61:03:62
TRACK 18 AUDIO
TITLE “Coronarias Redig”
PERFORMER “Deep Purple”
INDEX 00 64:37:40
INDEX 01 64:38:62
TRACK 19 AUDIO
TITLE “You Keep On Moving”
PERFORMER “Deep Purple”
INDEX 00 69:31:10
INDEX 01 69:32:62
TRACK 20 AUDIO
TITLE “Love Child”
PERFORMER “Deep Purple”
INDEX 00 74:00:57
INDEX 01 74:01:67


Leave a Reply

Your email address will not be published. Required fields are marked *

Enter the text from the image below
 

This site uses Akismet to reduce spam. Learn how your comment data is processed.