Deep Purple – Shades Of Deep Purple




Artist: Deep Purple
Year: 1968/1989
Genre: Rock
Notes: Discogs
Add. Notes:
Cover incl.: Yes
Encoder: FLAC
Bitrate: ~800 kBit/s (44.1 kHz/16 Bit/s)
Log & Cue incl.: Yes
Size: 277 MB
Password: “slam” (without ” “)


All Downloads/Hosters are compatible

Download 1
KatFile.com
Rapidgator.net
NitroFlare.com
Turbobit.net
Download 2
KatFile.com
Rapidgator.net
NitroFlare.com
Turbobit.net
Download 3
KatFile.com
Rapidgator.net
NitroFlare.com
Turbobit.net

Tracklist:

1 - And The Address - 4:39
2 - Hush - 4:25
3 - One More Rainy Day - 3:38
4a - Prelude: Happiness - 0:00
4b - I'm So Glad - 7:20
5 - Mandrake Root - 6:09
6 - Help - 6:00
7 - Love Help Me - 3:53
8 - Hey Joe - 7:26

EAC-Log, CUE-Sheed & NFO:

Click to open spoiler
Exact Audio Copy V0.99 prebeta 5 from 4. May 2009

Отчёт EAC об извлечении, выполненном 12. февраля 2011, 17:04

Deep Purple / Shades Of Deep Purple

Дисковод: Optiarc DVD RW AD-7240S Adapter: 1 ID: 0

Режим чтения : Достоверность
Использование точного потока : Да
Отключение кэша аудио : Да
Использование указателей C2 : Нет

Коррекция смещения при чтении : 48
Способность читать области Lead-in и Lead-out : Нет
Заполнение пропущенных сэмплов тишиной : Да
Удаление блоков с тишиной в начале и конце : Нет
При вычислениях CRC использовались нулевые сэмплы : Да
Интерфейс : Встроенный Win32-интерфейс для Win NT/2000

Выходной формат : Пользовательский кодировщик
Выбранный битрейт : 768 kBit/s
Качество : Высокий
Добавление ID3-тэга : Нет
Утилита сжатия : C:\Program Files\Exact Audio Copy\FLAC\FLAC.EXE
Дополнительные параметры : -6 -V -T “ARTIST=%a” -T “TITLE=%t” -T “ALBUM=%g” -T “DATE=%y” -T “TRACKNUMBER=%n” -T “GENRE=%m” -T “COMMENT=%e” %s -o %d

TOC извлечённого CD

Трек | Старт | Длительность | Начальный сектор | Конечный сектор
———————————————————————
1 | 0:00.33 | 4:39.62 | 33 | 21019
2 | 4:40.20 | 4:25.23 | 21020 | 40917
3 | 9:05.43 | 3:38.25 | 40918 | 57292
4 | 12:43.68 | 7:20.05 | 57293 | 90297
5 | 20:03.73 | 6:09.12 | 90298 | 117984
6 | 26:13.10 | 6:00.00 | 117985 | 144984
7 | 32:13.10 | 3:53.48 | 144985 | 162507
8 | 36:06.58 | 7:26.27 | 162508 | 195984

Характеристики диапазона извлечения и сообщения об ошибках

Выбранный диапазон

Имя файла E:\music\Deep Purple 1 press\Deep Purple – Shades Of Deep Purple 1968\Deep Purple – Shades Of Deep Purple.wav

Пиковый уровень 100.0 %
Качество диапазона 100.0 %
CRC теста 4B969AD0
CRC копии 4B969AD0
Копирование… OK

Ошибок не произошло

AccurateRip: сводка

Трек 1 точное извлечение (доверие 10) [2E82DB21]
Трек 2 точное извлечение (доверие 11) [237FA7FE]
Трек 3 точное извлечение (доверие 11) [0716EA66]
Трек 4 точное извлечение (доверие 11) [46B8A74C]
Трек 5 точное извлечение (доверие 11) [C2B65183]
Трек 6 точное извлечение (доверие 11) [74E2358F]
Трек 7 точное извлечение (доверие 11) [DC153A94]
Трек 8 точное извлечение (доверие 11) [AFB5948F]

Все треки извлечены точно

Конец отчёта

REM GENRE “Classic Rock”
REM DATE 1968
REM DISCID 6D0A3508
REM COMMENT “ExactAudioCopy v0.99pb5”
PERFORMER “Deep Purple”
TITLE “Shades Of Deep Purple (1989, CDP 7 92407 2)”
FILE “Deep Purple – Shades Of Deep Purple.flac” WAVE
TRACK 01 AUDIO
TITLE “And The Address”
PERFORMER “Deep Purple”
INDEX 00 00:00:00
INDEX 01 00:00:33
TRACK 02 AUDIO
TITLE “Hush”
PERFORMER “Deep Purple”
INDEX 00 04:36:05
INDEX 01 04:40:20
TRACK 03 AUDIO
TITLE “One More Rainy Day”
PERFORMER “Deep Purple”
INDEX 00 09:03:35
INDEX 01 09:05:43
TRACK 04 AUDIO
TITLE “a) Prelude; Happiness b) I’m So Glad”
PERFORMER “Deep Purple”
INDEX 00 12:42:48
INDEX 01 12:43:68
TRACK 05 AUDIO
TITLE “Mandrake Root”
PERFORMER “Deep Purple”
INDEX 00 20:00:03
INDEX 01 20:03:73
TRACK 06 AUDIO
TITLE “Help”
PERFORMER “Deep Purple”
INDEX 00 26:09:63
INDEX 01 26:13:10
TRACK 07 AUDIO
TITLE “Love Help Me”
PERFORMER “Deep Purple”
INDEX 00 32:11:33
INDEX 01 32:13:10
TRACK 08 AUDIO
TITLE “Hey Joe”
PERFORMER “Deep Purple”
INDEX 00 36:03:60
INDEX 01 36:06:58


Leave a Reply

Your email address will not be published. Required fields are marked *

Enter the text from the image below
 

This site uses Akismet to reduce spam. Learn how your comment data is processed.