Deep Purple – Shades Of Deep Purple (Remastered)




No Cover available

Artist: Deep Purple
Year: 1986/2000
Genre: Rock
Notes: Discogs
Add. Notes: Remastered
Watch Songs on: YouTube
Cover incl.: Yes
Encoder: FLAC
Bitrate: ~900 kBit/s (44.1 kHz/16 Bit/s)
Log & Cue incl.: Yes/Yes
Size: 412,8 MB
Password: “slam” (without ” “)


All Downloads/Hosters are compatible

Download 1
KatFile.com
Turbobit.net
Rapidgator.net
FileFactory.com
Download 2
KatFile.com
Turbobit.net
Rapidgator.net
FileFactory.com

Tracklist:

1 And The Address 4:38
2 Hush 4:25
3 One More Rainy Day 3:40
4 Prelude: 7:19
4a Happiness 
4b I'm So Glad 
5 Mandrake Root 6:10
6 Help 6:01
7 Love Help Me 3:49
8 Hey Joe 7:34

Bonus Tracks
9 Shadows (Album Out Take) 3:39
10 Love Help Me (Instrumental Vsn.) 3:30
11 Help (Alternate Take) 5:24
12 Hey Joe (BBC Top Gear Session) 4:06
13 Hush (Live US TV 1968) 3:53

EAC-Log, CUE-Sheed & NFO:

Click to open spoiler
Exact Audio Copy V1.0 beta 3 from 29. August 2011

EAC extraction logfile from 27. August 2013, 20:49

Deep Purple / Shades Of Deep Purple

Used drive : ATAPI iHAS124 B Adapter: 2 ID: 0

Read mode : Secure
Utilize accurate stream : Yes
Defeat audio cache : Yes
Make use of C2 pointers : No

Read offset correction : 6
Overread into Lead-In and Lead-Out : No
Fill up missing offset samples with silence : Yes
Delete leading and trailing silent blocks : No
Null samples used in CRC calculations : Yes
Used interface : Native Win32 interface for Win NT & 2000

Used output format : User Defined Encoder
Selected bitrate : 1024 kBit/s
Quality : High
Add ID3 tag : No
Command line compressor : C:\Program Files (x86)\Exact Audio Copy\FLAC\FLAC.EXE
Additional command line options : -8 -V -T “ARTIST=%artist%” -T “TITLE=%title%” -T “ALBUM=%albumtitle%” -T “DATE=%year%” -T “TRACKNUMBER=%tracknr%” -T “GENRE=%genre%” -T “PERFORMER=%albuminterpret%” -T “COMPOSER=%composer%” %haslyrics%–tag-from-file=LYRICS=”%lyricsfile%”%haslyrics% -T “ALBUMARTIST=%albumartist%” -T “DISCNUMBER=%cdnumber%” -T “TOTALDISCS=%totalcds%” -T “TOTALTRACKS=%numtracks%” -T “COMMENT=%comment%” %source% -o %dest%

TOC of the extracted CD

Track | Start | Length | Start sector | End sector
———————————————————
1 | 0:00.00 | 4:38.30 | 0 | 20879
2 | 4:38.30 | 4:24.73 | 20880 | 40752
3 | 9:03.28 | 3:39.67 | 40753 | 57244
4 | 12:43.20 | 7:19.28 | 57245 | 90197
5 | 20:02.48 | 6:09.42 | 90198 | 117914
6 | 26:12.15 | 6:01.30 | 117915 | 145019
7 | 32:13.45 | 3:49.08 | 145020 | 162202
8 | 36:02.53 | 7:33.72 | 162203 | 196249
9 | 43:36.50 | 3:38.40 | 196250 | 212639
10 | 47:15.15 | 3:29.68 | 212640 | 228382
11 | 50:45.08 | 5:23.42 | 228383 | 252649
12 | 56:08.50 | 4:05.55 | 252650 | 271079
13 | 60:14.30 | 3:53.05 | 271080 | 288559

Range status and errors

Selected range

Filename G:\CD\Deep Purple – Shades Of Deep Purple.wav

Peak level 99.5 %
Extraction speed 3.2 X
Range quality 100.0 %
Test CRC E0EA0108
Copy CRC E0EA0108
Copy OK

No errors occurred

AccurateRip summary

Track 1 accurately ripped (confidence 3) [B0F38398] (AR v2)
Track 2 accurately ripped (confidence 3) [849CEF33] (AR v2)
Track 3 accurately ripped (confidence 3) [A5E70122] (AR v2)
Track 4 accurately ripped (confidence 3) [2992E514] (AR v2)
Track 5 accurately ripped (confidence 2) [FFE4D26C] (AR v2)
Track 6 accurately ripped (confidence 3) [1A53E144] (AR v2)
Track 7 accurately ripped (confidence 3) [93EDB6A7] (AR v2)
Track 8 accurately ripped (confidence 3) [7FDA2D5A] (AR v2)
Track 9 accurately ripped (confidence 3) [09BE2CFC] (AR v2)
Track 10 accurately ripped (confidence 3) [22D49E04] (AR v2)
Track 11 accurately ripped (confidence 3) [E0B4F967] (AR v2)
Track 12 accurately ripped (confidence 3) [C95DA6C9] (AR v2)
Track 13 accurately ripped (confidence 3) [0BE3A0EE] (AR v2)

All tracks accurately ripped

End of status report

==== Log checksum BB4E703E8680E8A339DB86572A3BE4D344842ED0A53E8971A2597B072C2186A2 ====

REM GENRE “Hard Rock”
REM DATE 1968
REM DISCID B30F070D
REM COMMENT “ExactAudioCopy v1.0b3”
CATALOG 0826992022420
PERFORMER “Deep Purple”
TITLE “Shades Of Deep Purple (2000, ER202242)”
FILE “Deep Purple – Shades Of Deep Purple.flac” WAVE
TRACK 01 AUDIO
TITLE “And The Address”
PERFORMER “Deep Purple”
ISRC GBCBR1100169
INDEX 01 00:00:00
TRACK 02 AUDIO
TITLE “Hush”
PERFORMER “Deep Purple”
ISRC GBCBR1100170
INDEX 01 04:38:30
TRACK 03 AUDIO
TITLE “One More Rainy Day”
PERFORMER “Deep Purple”
ISRC GBCBR1100171
INDEX 01 09:03:28
TRACK 04 AUDIO
TITLE “Prelude Happiness / I’m So Glad”
PERFORMER “Deep Purple”
ISRC GBCBR1100172
INDEX 01 12:43:20
TRACK 05 AUDIO
TITLE “Mandrake Root”
PERFORMER “Deep Purple”
ISRC GBCBR1100173
INDEX 01 20:02:48
TRACK 06 AUDIO
TITLE “Help”
PERFORMER “Deep Purple”
ISRC GBCBR1100174
INDEX 01 26:12:15
TRACK 07 AUDIO
TITLE “Love Help Me”
PERFORMER “Deep Purple”
ISRC GBCBR1100175
INDEX 01 32:13:45
TRACK 08 AUDIO
TITLE “Hey Joe”
PERFORMER “Deep Purple”
ISRC GBCBR1100176
INDEX 01 36:02:53
TRACK 09 AUDIO
TITLE “Shadows (album out take)”
PERFORMER “Deep Purple”
ISRC GBCBR1100177
INDEX 01 43:36:50
TRACK 10 AUDIO
TITLE “Love Help Me (Instrumental Version)”
PERFORMER “Deep Purple”
ISRC GBCBR1100178
INDEX 01 47:15:15
TRACK 11 AUDIO
TITLE “Help (Alternate Take)”
PERFORMER “Deep Purple”
ISRC GBCBR1100179
INDEX 01 50:45:08
TRACK 12 AUDIO
TITLE “Hey Joe (BBC Top Gear Session)”
PERFORMER “Deep Purple”
ISRC GBCBR1100180
INDEX 01 56:08:50
TRACK 13 AUDIO
TITLE “Hush (Live US TV)”
PERFORMER “Deep Purple”
ISRC GBCBR1100181
INDEX 01 60:14:30


Leave a Reply

Your email address will not be published. Required fields are marked *

Enter the text from the image below
 

This site uses Akismet to reduce spam. Learn how your comment data is processed.