Deep Purple – Shades 1968–1998 (Remastered)




No Cover available

Artist: Deep Purple
Year: 1999
Genre: Rock
Notes: Discogs
Add. Notes: Remastered
Watch Songs on: YouTube
Cover incl.: Yes
Encoder: FLAC
Bitrate: ~1000 kBit/s (44.1 kHz/16 Bit/s)
Log & Cue incl.: Yes/Yes
Size: 2838,5 MB
Password: “slam” (without ” “)


All Downloads/Hosters are compatible

Download 1
KatFile.com
Turbobit.net
FileFactory.com
Rapidgator.net
Download 2
KatFile.com
Turbobit.net
FileFactory.com
Rapidgator.net

Tracklist:

1-01 Hush 4:27
1-02 Help 6:03
1-03 Shadows (Demo 1968) 3:30
1-04 Love Help Me (Instrumental Demo 1968) 3:25
1-05 Kentucky Woman (Single Version) 4:14
1-06 Anthem 6:32
1-07 River Deep Mountain High (Single Version) 2:37
1-08 Emmaretta 3:00
1-09 The Bird Has Flown (Single Version) 2:53
1-10 Hallelujah (I Am The Preacher) 3:47
1-11 Speed King (Full-Lenght UK Version) 5:53
1-12 Child In Time 10:21
1-13 Cry Free (Outtake, 1970/Roger Glover Remix) 3:23
1-14 Black Night (Full-Lenght UK Version) 3:27
1-15 Jam Stew ( Outtake, 1970) 2:33
1-16 Into The Fire (Live, 1970) 4:20
1-17 No No No (Live, 1971) 7:16

2-01 Strange Kind Of Woman 4:03
2-02 I'm Alone 3:04
2-03 Fireball 3:24
2-04 Demon's Eye 5:21
2-05 Anyone's Daughter 4:45
2-06 Fools 8:19
2-07 No One Came 6:27
2-08 Freedom (Outtake, 1971) 3:36
2-09 Slow Train (Outtake, 1971) 5:35
2-10 Never Before 4:02
2-11 When A Blind Man Cries 3:34
2-12 Highway Star 6:09
2-13 Smoke On The Water 5:42
2-14 Pictures Of Home 5:07
2-15 Space Truckin' 4:35
2-16 Painted Horse (Outtake, 1972) 5:15

3-01 Smoke On The Water (Live, 1972) 7:13
3-02 Lazy (Live, 1972) 10:34
3-03 Woman From Tokyo 5:50
3-04 Mary Long 4:26
3-05 Super Trouper 2:56
3-06 Smooth Dancer 4:11
3-07 Burn 6:02
3-08 Might Just Take Your Life 4:39
3-09 Sail Away 5:51
3-10 Coronarias Redig 4:55
3-11 Stormbringer 4:08
3-12 Hold On 5:09
3-13 Lady Double Dealer (Live, 1975) 4:17
3-14 Gettin' Tighter 3:37
3-15 Comin' Home 3:53

4-01 Knocking At Your Back Door 7:07
4-02 Perfect Strangers 5:28
4-03 Son Of Alerik (7" Single Version) 5:28
4-04 Call Of The Wild 4:53
4-05 Bad Attitude (Single Version) 4:03
4-06 Hard Lovin' Woman (Live, 1987) 4:05
4-07 Hush '88 (Live, 1988) 3:32
4-08 King Of Dreams (Single Version) 4:50
4-09 Fire In The Basement 4:43
4-10 Slow Down Sister 5:58
4-11 The Battle Rages On 5:57
4-12 Anya (Live, 1993) 12:11
4-13 A Castle Full Of Rascals 5:11
4-14 Seventh Heaven 5:23

EAC-Log, CUE-Sheed & NFO:

Click to open spoiler
Exact Audio Copy V1.0 beta 3 from 29. August 2011

Отчёт EAC об извлечении, выполненном 8. февраля 2014, 21:42

Deep Purple / Shades 1968-1998 (DP1)

Дисковод: PLEXTOR DVDR PX-880SA Adapter: 1 ID: 0

Режим чтения : Достоверность
Использование точного потока : Да
Отключение кэша аудио : Да
Использование указателей C2 : Нет

Коррекция смещения при чтении : 6
Способность читать области Lead-in и Lead-out : Нет
Заполнение пропущенных сэмплов тишиной : Да
Удаление блоков с тишиной в начале и конце : Нет
При вычислениях CRC использовались нулевые сэмплы : Да
Интерфейс : Установленный внешний ASPI-интерфейс

Выходной формат : Пользовательский кодировщик
Выбранный битрейт : 1024 kBit/s
Качество : Высокий
Добавление ID3-тега : Нет
Утилита сжатия : C:\Program Files\Exact Audio Copy\FLAC\FLAC.EXE
Дополнительные параметры : -10 -V -T “ARTIST=%artist%” -T “TITLE=%title%” -T “ALBUM=%albumtitle%” -T “DATE=%year%” -T “TRACKNUMBER=%tracknr%” -T “GENRE=%genre%” -T “COMMENT=%comment%” -T “BAND=%albuminterpret%” -T “ALBUMARTIST=%albuminterpret%” -T “COMPOSER=%composer%” %haslyrics%–tag-from-file=LYRICS=”%lyricsfile%”%haslyrics% -T “DISCNUMBER=%cdnumber%” -T “TOTALDISCS=%totalcds%” -T “TOTALTRACKS=%numtracks%” %hascover%–picture=”%coverfile%”%hascover% %source% -o %dest%

TOC извлечённого CD

Трек | Старт | Длительность | Начальный сектор | Конечный сектор
———————————————————————
1 | 0:00.00 | 4:27.72 | 0 | 20096
2 | 4:27.72 | 6:03.05 | 20097 | 47326
3 | 10:31.02 | 3:30.33 | 47327 | 63109
4 | 14:01.35 | 3:25.40 | 63110 | 78524
5 | 17:27.00 | 4:14.50 | 78525 | 97624
6 | 21:41.50 | 6:32.32 | 97625 | 127056
7 | 28:14.07 | 2:37.03 | 127057 | 138834
8 | 30:51.10 | 3:00.50 | 138835 | 152384
9 | 33:51.60 | 2:53.42 | 152385 | 165401
10 | 36:45.27 | 3:47.35 | 165402 | 182461
11 | 40:32.62 | 5:53.30 | 182462 | 208966
12 | 46:26.17 | 10:21.18 | 208967 | 255559
13 | 56:47.35 | 3:23.20 | 255560 | 270804
14 | 60:10.55 | 3:27.45 | 270805 | 286374
15 | 63:38.25 | 2:33.20 | 286375 | 297869
16 | 66:11.45 | 4:20.15 | 297870 | 317384
17 | 70:31.60 | 7:16.65 | 317385 | 350149

Характеристики диапазона извлечения и сообщения об ошибках

Выбранный диапазон

Имя файла D:\BitComet\Deep Purple – Shades 1968–1998 (1999)\DP-1\Deep Purple – Shades 1968-1998 (DP1).wav

Пиковый уровень 99.6 %
Скорость извлечения 2.4 X
Качество диапазона 100.0 %
CRC теста 5D1076F4
CRC копии 5D1076F4
Копирование… OK

Ошибок не произошло

AccurateRip: сводка

Трек 1 отсутствует в базе данных
Трек 2 отсутствует в базе данных
Трек 3 отсутствует в базе данных
Трек 4 отсутствует в базе данных
Трек 5 отсутствует в базе данных
Трек 6 отсутствует в базе данных
Трек 7 отсутствует в базе данных
Трек 8 отсутствует в базе данных
Трек 9 отсутствует в базе данных
Трек 10 отсутствует в базе данных
Трек 11 отсутствует в базе данных
Трек 12 отсутствует в базе данных
Трек 13 отсутствует в базе данных
Трек 14 отсутствует в базе данных
Трек 15 отсутствует в базе данных
Трек 16 отсутствует в базе данных
Трек 17 отсутствует в базе данных

Ни одного трека нет в базе AccurateRip

Конец отчёта

==== Контрольная сумма отчёта 6DEA02987DD885BDB45F984E4BA7E01F9896A064D265DFED2473ED8FCE747F19 ====
#+

Exact Audio Copy V1.0 beta 3 from 29. August 2011

Отчёт EAC об извлечении, выполненном 8. февраля 2014, 20:34

Deep Purple / Shades 1968-1998 (DP-2)

Дисковод: PLEXTOR DVDR PX-880SA Adapter: 1 ID: 0

Режим чтения : Достоверность
Использование точного потока : Да
Отключение кэша аудио : Да
Использование указателей C2 : Нет

Коррекция смещения при чтении : 6
Способность читать области Lead-in и Lead-out : Нет
Заполнение пропущенных сэмплов тишиной : Да
Удаление блоков с тишиной в начале и конце : Нет
При вычислениях CRC использовались нулевые сэмплы : Да
Интерфейс : Установленный внешний ASPI-интерфейс

Выходной формат : Пользовательский кодировщик
Выбранный битрейт : 1024 kBit/s
Качество : Высокий
Добавление ID3-тега : Нет
Утилита сжатия : C:\Program Files\Exact Audio Copy\FLAC\FLAC.EXE
Дополнительные параметры : -10 -V -T “ARTIST=%artist%” -T “TITLE=%title%” -T “ALBUM=%albumtitle%” -T “DATE=%year%” -T “TRACKNUMBER=%tracknr%” -T “GENRE=%genre%” -T “COMMENT=%comment%” -T “BAND=%albuminterpret%” -T “ALBUMARTIST=%albuminterpret%” -T “COMPOSER=%composer%” %haslyrics%–tag-from-file=LYRICS=”%lyricsfile%”%haslyrics% -T “DISCNUMBER=%cdnumber%” -T “TOTALDISCS=%totalcds%” -T “TOTALTRACKS=%numtracks%” %hascover%–picture=”%coverfile%”%hascover% %source% -o %dest%

TOC извлечённого CD

Трек | Старт | Длительность | Начальный сектор | Конечный сектор
———————————————————————
1 | 0:00.00 | 4:03.52 | 0 | 18276
2 | 4:03.52 | 3:04.55 | 18277 | 32131
3 | 7:08.32 | 3:24.35 | 32132 | 47466
4 | 10:32.67 | 5:21.53 | 47467 | 71594
5 | 15:54.45 | 4:45.22 | 71595 | 92991
6 | 20:39.67 | 8:19.48 | 92992 | 130464
7 | 28:59.40 | 6:27.65 | 130465 | 159554
8 | 35:27.30 | 3:36.05 | 159555 | 175759
9 | 39:03.35 | 5:35.70 | 175760 | 200954
10 | 44:39.30 | 4:02.00 | 200955 | 219104
11 | 48:41.30 | 3:34.27 | 219105 | 235181
12 | 52:15.57 | 6:09.35 | 235182 | 262891
13 | 58:25.17 | 5:42.25 | 262892 | 288566
14 | 64:07.42 | 5:07.25 | 288567 | 311616
15 | 69:14.67 | 4:35.58 | 311617 | 332299
16 | 73:50.50 | 5:15.53 | 332300 | 355977

Характеристики диапазона извлечения и сообщения об ошибках

Выбранный диапазон

Имя файла D:\BitComet\Deep Purple – Shades 1968–1998 (1999)\DP-2\Deep Purple – Shades 1968-1998 (DP-2).wav

Пиковый уровень 97.2 %
Скорость извлечения 1.2 X
Качество диапазона 100.0 %
CRC теста D2C38067
CRC копии D2C38067
Копирование… OK

Ошибок не произошло

AccurateRip: сводка

Трек 1 отсутствует в базе данных
Трек 2 отсутствует в базе данных
Трек 3 отсутствует в базе данных
Трек 4 отсутствует в базе данных
Трек 5 отсутствует в базе данных
Трек 6 отсутствует в базе данных
Трек 7 отсутствует в базе данных
Трек 8 отсутствует в базе данных
Трек 9 отсутствует в базе данных
Трек 10 отсутствует в базе данных
Трек 11 отсутствует в базе данных
Трек 12 отсутствует в базе данных
Трек 13 отсутствует в базе данных
Трек 14 отсутствует в базе данных
Трек 15 отсутствует в базе данных
Трек 16 отсутствует в базе данных

Ни одного трека нет в базе AccurateRip

Конец отчёта

==== Контрольная сумма отчёта D3C8EA18A29A8EB8F4328C45EAD1442C33CAD432EEC75AE65631F51F1E6161C1 ====

Exact Audio Copy V1.0 beta 3 from 29. August 2011

Отчёт EAC об извлечении, выполненном 8. февраля 2014, 22:52

Deep Purple / Shades 1968-1998 (DP-3)

Дисковод: PLEXTOR DVDR PX-880SA Adapter: 1 ID: 0

Режим чтения : Достоверность
Использование точного потока : Да
Отключение кэша аудио : Да
Использование указателей C2 : Нет

Коррекция смещения при чтении : 6
Способность читать области Lead-in и Lead-out : Нет
Заполнение пропущенных сэмплов тишиной : Да
Удаление блоков с тишиной в начале и конце : Нет
При вычислениях CRC использовались нулевые сэмплы : Да
Интерфейс : Установленный внешний ASPI-интерфейс

Выходной формат : Пользовательский кодировщик
Выбранный битрейт : 1024 kBit/s
Качество : Высокий
Добавление ID3-тега : Нет
Утилита сжатия : C:\Program Files\Exact Audio Copy\FLAC\FLAC.EXE
Дополнительные параметры : -10 -V -T “ARTIST=%artist%” -T “TITLE=%title%” -T “ALBUM=%albumtitle%” -T “DATE=%year%” -T “TRACKNUMBER=%tracknr%” -T “GENRE=%genre%” -T “COMMENT=%comment%” -T “BAND=%albuminterpret%” -T “ALBUMARTIST=%albuminterpret%” -T “COMPOSER=%composer%” %haslyrics%–tag-from-file=LYRICS=”%lyricsfile%”%haslyrics% -T “DISCNUMBER=%cdnumber%” -T “TOTALDISCS=%totalcds%” -T “TOTALTRACKS=%numtracks%” %hascover%–picture=”%coverfile%”%hascover% %source% -o %dest%

TOC извлечённого CD

Трек | Старт | Длительность | Начальный сектор | Конечный сектор
———————————————————————
1 | 0:00.00 | 7:14.25 | 0 | 32574
2 | 7:14.25 | 10:34.37 | 32575 | 80161
3 | 17:48.62 | 5:50.28 | 80162 | 106439
4 | 23:39.15 | 4:26.27 | 106440 | 126416
5 | 28:05.42 | 2:56.48 | 126417 | 139664
6 | 31:02.15 | 4:11.10 | 139665 | 158499
7 | 35:13.25 | 6:02.35 | 158500 | 185684
8 | 41:15.60 | 4:39.12 | 185685 | 206621
9 | 45:54.72 | 5:51.55 | 206622 | 233001
10 | 51:46.52 | 4:55.10 | 233002 | 255136
11 | 56:41.62 | 4:08.38 | 255137 | 273774
12 | 60:50.25 | 5:09.60 | 273775 | 297009
13 | 66:00.10 | 4:17.15 | 297010 | 316299
14 | 70:17.25 | 3:37.62 | 316300 | 332636
15 | 73:55.12 | 3:53.03 | 332637 | 350114

Характеристики диапазона извлечения и сообщения об ошибках

Выбранный диапазон

Имя файла D:\BitComet\Deep Purple – Shades 1968–1998 (1999)\DP-3\Deep Purple – Shades 1968-1998 (DP-3).wav

Пиковый уровень 100.0 %
Скорость извлечения 2.4 X
Качество диапазона 100.0 %
CRC теста B04AED12
CRC копии B04AED12
Копирование… OK

Ошибок не произошло

AccurateRip: сводка

Трек 1 отсутствует в базе данных
Трек 2 отсутствует в базе данных
Трек 3 отсутствует в базе данных
Трек 4 отсутствует в базе данных
Трек 5 отсутствует в базе данных
Трек 6 отсутствует в базе данных
Трек 7 отсутствует в базе данных
Трек 8 отсутствует в базе данных
Трек 9 отсутствует в базе данных
Трек 10 отсутствует в базе данных
Трек 11 отсутствует в базе данных
Трек 12 отсутствует в базе данных
Трек 13 отсутствует в базе данных
Трек 14 отсутствует в базе данных
Трек 15 отсутствует в базе данных

Ни одного трека нет в базе AccurateRip

Конец отчёта

==== Контрольная сумма отчёта FBE119A180DDFC8D7237FF307152673AFDE8CFD952D476B251001CCE6FFC00BE ====

Exact Audio Copy V1.0 beta 3 from 29. August 2011

Отчёт EAC об извлечении, выполненном 9. февраля 2014, 0:30

Deep Purple / Shades 1968-1998 (DP-4)

Дисковод: PLEXTOR DVDR PX-880SA Adapter: 1 ID: 0

Режим чтения : Достоверность
Использование точного потока : Да
Отключение кэша аудио : Да
Использование указателей C2 : Нет

Коррекция смещения при чтении : 6
Способность читать области Lead-in и Lead-out : Нет
Заполнение пропущенных сэмплов тишиной : Да
Удаление блоков с тишиной в начале и конце : Нет
При вычислениях CRC использовались нулевые сэмплы : Да
Интерфейс : Установленный внешний ASPI-интерфейс

Выходной формат : Пользовательский кодировщик
Выбранный битрейт : 1024 kBit/s
Качество : Высокий
Добавление ID3-тега : Нет
Утилита сжатия : C:\Program Files\Exact Audio Copy\FLAC\FLAC.EXE
Дополнительные параметры : -10 -V -T “ARTIST=%artist%” -T “TITLE=%title%” -T “ALBUM=%albumtitle%” -T “DATE=%year%” -T “TRACKNUMBER=%tracknr%” -T “GENRE=%genre%” -T “COMMENT=%comment%” -T “BAND=%albuminterpret%” -T “ALBUMARTIST=%albuminterpret%” -T “COMPOSER=%composer%” %haslyrics%–tag-from-file=LYRICS=”%lyricsfile%”%haslyrics% -T “DISCNUMBER=%cdnumber%” -T “TOTALDISCS=%totalcds%” -T “TOTALTRACKS=%numtracks%” %hascover%–picture=”%coverfile%”%hascover% %source% -o %dest%

TOC извлечённого CD

Трек | Старт | Длительность | Начальный сектор | Конечный сектор
———————————————————————
1 | 0:00.00 | 7:07.55 | 0 | 32079
2 | 7:07.55 | 5:28.57 | 32080 | 56736
3 | 12:36.37 | 5:28.65 | 56737 | 81401
4 | 18:05.27 | 4:53.28 | 81402 | 103404
5 | 22:58.55 | 4:03.72 | 103405 | 121701
6 | 27:02.52 | 4:05.10 | 121702 | 140086
7 | 31:07.62 | 3:32.48 | 140087 | 156034
8 | 34:40.35 | 4:50.17 | 156035 | 177801
9 | 39:30.52 | 4:43.38 | 177802 | 199064
10 | 44:14.15 | 5:58.07 | 199065 | 225921
11 | 50:12.22 | 5:57.30 | 225922 | 252726
12 | 56:09.52 | 12:11.55 | 252727 | 307606
13 | 68:21.32 | 5:11.25 | 307607 | 330956
14 | 73:32.57 | 5:23.36 | 330957 | 355217

Характеристики диапазона извлечения и сообщения об ошибках

Выбранный диапазон

Имя файла D:\BitComet\Deep Purple – Shades 1968–1998 (1999)\DP-4\Deep Purple – Shades 1968-1998 (DP-4).wav

Пиковый уровень 100.0 %
Скорость извлечения 2.4 X
Качество диапазона 100.0 %
CRC теста EB119C2D
CRC копии EB119C2D
Копирование… OK

Ошибок не произошло

AccurateRip: сводка

Трек 1 отсутствует в базе данных
Трек 2 отсутствует в базе данных
Трек 3 отсутствует в базе данных
Трек 4 отсутствует в базе данных
Трек 5 отсутствует в базе данных
Трек 6 отсутствует в базе данных
Трек 7 отсутствует в базе данных
Трек 8 отсутствует в базе данных
Трек 9 отсутствует в базе данных
Трек 10 отсутствует в базе данных
Трек 11 отсутствует в базе данных
Трек 12 отсутствует в базе данных
Трек 13 отсутствует в базе данных
Трек 14 отсутствует в базе данных

Ни одного трека нет в базе AccurateRip

Конец отчёта

==== Контрольная сумма отчёта ED7B3276A6CD849AAE3EAD276CEDAED57E971E6336B45AEE1ECB6C15E55A3C40 ====

REM GENRE “Hard Rock”
REM DATE 1999
REM DISCID EE123C11
REM COMMENT “ExactAudioCopy v1.0b3”
PERFORMER “Deep Purple”
TITLE “Shades 1968-1998 (DP1) (1999, 4CD, R2 75566)”
FILE “Deep Purple – Shades 1968-1998 (DP1).flac” WAVE
TRACK 01 AUDIO
TITLE “Hush”
PERFORMER “Deep Purple”
INDEX 01 00:00:00
TRACK 02 AUDIO
TITLE “Help”
PERFORMER “Deep Purple”
INDEX 00 04:27:40
INDEX 01 04:27:72
TRACK 03 AUDIO
TITLE “Shadows (Demo, 1968)”
PERFORMER “Deep Purple”
INDEX 01 10:31:02
TRACK 04 AUDIO
TITLE “Love Help Me (Instrumental Demo, 1968)”
PERFORMER “Deep Purple”
INDEX 01 14:01:35
TRACK 05 AUDIO
TITLE “Kentucky Woman (Singel Version)”
PERFORMER “Deep Purple”
INDEX 01 17:27:00
TRACK 06 AUDIO
TITLE “Anthem”
PERFORMER “Deep Purple”
INDEX 01 21:41:50
TRACK 07 AUDIO
TITLE “River Deep-Mountain High (Singel Version)”
PERFORMER “Deep Purple”
INDEX 01 28:14:07
TRACK 08 AUDIO
TITLE “Emmaretta”
PERFORMER “Deep Purple”
INDEX 01 30:51:10
TRACK 09 AUDIO
TITLE “The Bird Has Flown (Singel Version)”
PERFORMER “Deep Purple”
INDEX 01 33:51:60
TRACK 10 AUDIO
TITLE “Hallelujah (I am the Preacher)”
PERFORMER “Deep Purple”
INDEX 01 36:45:27
TRACK 11 AUDIO
TITLE “Speed King (Full-lenght U.K. Version)”
PERFORMER “Deep Purple”
INDEX 01 40:32:62
TRACK 12 AUDIO
TITLE “Child in Time”
PERFORMER “Deep Purple”
INDEX 00 46:26:16
INDEX 01 46:26:17
TRACK 13 AUDIO
TITLE “Cry Free (Outtake, 1970)”
PERFORMER “Deep Purple”
INDEX 01 56:47:35
TRACK 14 AUDIO
TITLE “Black Night (Full-lenght U.K. Version)”
PERFORMER “Deep Purple”
INDEX 01 60:10:55
TRACK 15 AUDIO
TITLE “Jam Stew (Outtake, 1970)”
PERFORMER “Deep Purple”
INDEX 01 63:38:25
TRACK 16 AUDIO
TITLE “Into the Fire (Live, 1970)”
PERFORMER “Deep Purple”
INDEX 01 66:11:45
TRACK 17 AUDIO
TITLE “No No No (Live, 1971)”
PERFORMER “Deep Purple”
INDEX 01 70:31:60

REM GENRE “Hard Rock”
REM DATE 1999
REM DISCID D9128A10
REM COMMENT “ExactAudioCopy v1.0b3”
PERFORMER “Deep Purple”
TITLE “Shades 1968-1998 (DP2) (1999, 4CD, R2 75566)”
FILE “Deep Purple – Shades 1968-1998 (DP-2).flac” WAVE
TRACK 01 AUDIO
TITLE “Strange Kind Of Woman”
PERFORMER “Deep Purple”
INDEX 01 00:00:00
TRACK 02 AUDIO
TITLE “I’m Alone”
PERFORMER “Deep Purple”
INDEX 00 04:03:20
INDEX 01 04:03:52
TRACK 03 AUDIO
TITLE “Fireball ”
PERFORMER “Deep Purple”
INDEX 01 07:08:32
TRACK 04 AUDIO
TITLE “Demon’s Eye ”
PERFORMER “Deep Purple”
INDEX 01 10:32:67
TRACK 05 AUDIO
TITLE “Anyone’s Daughter ”
PERFORMER “Deep Purple”
INDEX 01 15:54:45
TRACK 06 AUDIO
TITLE “Fools”
PERFORMER “Deep Purple”
INDEX 01 20:39:67
TRACK 07 AUDIO
TITLE “No One Came ”
PERFORMER “Deep Purple”
INDEX 01 28:59:40
TRACK 08 AUDIO
TITLE “Freedom (Outtake, 1971)”
PERFORMER “Deep Purple”
INDEX 01 35:27:30
TRACK 09 AUDIO
TITLE “Slow Train (Outtake, 1971)”
PERFORMER “Deep Purple”
INDEX 00 39:03:34
INDEX 01 39:03:35
TRACK 10 AUDIO
TITLE “Never Before”
PERFORMER “Deep Purple”
INDEX 01 44:39:30
TRACK 11 AUDIO
TITLE “When A Blind Man Cries”
PERFORMER “Deep Purple”
INDEX 01 48:41:30
TRACK 12 AUDIO
TITLE “Highway Star”
PERFORMER “Deep Purple”
INDEX 01 52:15:57
TRACK 13 AUDIO
TITLE “Smoke On The Water”
PERFORMER “Deep Purple”
INDEX 01 58:25:17
TRACK 14 AUDIO
TITLE “Pictures Of Home”
PERFORMER “Deep Purple”
INDEX 01 64:07:42
TRACK 15 AUDIO
TITLE “Space Truckin'”
PERFORMER “Deep Purple”
INDEX 01 69:14:67
TRACK 16 AUDIO
TITLE “Painted Horse (Outtake, 1972)”
PERFORMER “Deep Purple”
INDEX 01 73:50:50

REM GENRE “Hard Rock”
REM DATE 1999
REM DISCID D5123C0F
REM COMMENT “ExactAudioCopy v1.0b3”
PERFORMER “Deep Purple”
TITLE “Shades 1968-1998 (DP3) (1999, 4CD, R2 75566)”
FILE “Deep Purple – Shades 1968-1998 (DP-3).flac” WAVE
TRACK 01 AUDIO
TITLE “Smoke On The Water (Live, 1972)”
PERFORMER “Deep Purple”
INDEX 01 00:00:00
TRACK 02 AUDIO
TITLE “Lazy (Live, 1972)”
PERFORMER “Deep Purple”
INDEX 00 07:13:68
INDEX 01 07:14:25
TRACK 03 AUDIO
TITLE “Woman From Tokyo”
PERFORMER “Deep Purple”
INDEX 01 17:48:62
TRACK 04 AUDIO
TITLE “Mary Long”
PERFORMER “Deep Purple”
INDEX 01 23:39:15
TRACK 05 AUDIO
TITLE “Super Trouper”
PERFORMER “Deep Purple”
INDEX 01 28:05:42
TRACK 06 AUDIO
TITLE “Smooth Dancer”
PERFORMER “Deep Purple”
INDEX 01 31:02:15
TRACK 07 AUDIO
TITLE “Burn”
PERFORMER “Deep Purple”
INDEX 01 35:13:25
TRACK 08 AUDIO
TITLE “Might Just Take Your Life”
PERFORMER “Deep Purple”
INDEX 01 41:15:60
TRACK 09 AUDIO
TITLE “Sail Away”
PERFORMER “Deep Purple”
INDEX 01 45:54:72
TRACK 10 AUDIO
TITLE “Coronarias Redig”
PERFORMER “Deep Purple”
INDEX 01 51:46:52
TRACK 11 AUDIO
TITLE “Stormbringer”
PERFORMER “Deep Purple”
INDEX 01 56:41:62
TRACK 12 AUDIO
TITLE “Hold On”
PERFORMER “Deep Purple”
INDEX 01 60:50:25
TRACK 13 AUDIO
TITLE “Lady Double Dealer (Live, 1975)”
PERFORMER “Deep Purple”
INDEX 01 66:00:10
TRACK 14 AUDIO
TITLE “Gettin’ Tighter”
PERFORMER “Deep Purple”
INDEX 01 70:17:25
TRACK 15 AUDIO
TITLE “Comin’ Home”
PERFORMER “Deep Purple”
INDEX 01 73:55:12

REM GENRE “Hard Rock”
REM DATE 1999
REM DISCID BE12800E
REM COMMENT “ExactAudioCopy v1.0b3”
PERFORMER “Deep Purple”
TITLE “Shades 1968-1998 (DP4) (1999, 4CD, R2 75566)”
FILE “Deep Purple – Shades 1968-1998 (DP-4).flac” WAVE
TRACK 01 AUDIO
TITLE “Knocking At Your Back Door”
PERFORMER “Deep Purple”
INDEX 01 00:00:00
TRACK 02 AUDIO
TITLE “Perfect Strangers”
PERFORMER “Deep Purple”
INDEX 00 07:07:23
INDEX 01 07:07:55
TRACK 03 AUDIO
TITLE “Son Of Alerik (7′ Single Version)”
PERFORMER “Deep Purple”
INDEX 01 12:36:37
TRACK 04 AUDIO
TITLE “Call Of The Wild”
PERFORMER “Deep Purple”
INDEX 01 18:05:27
TRACK 05 AUDIO
TITLE “Bad Attitude (Single Version)”
PERFORMER “Deep Purple”
INDEX 01 22:58:55
TRACK 06 AUDIO
TITLE “Hard Lovin’ Woman (Live, 1987)”
PERFORMER “Deep Purple”
INDEX 01 27:02:52
TRACK 07 AUDIO
TITLE “Hush ’88 (Live, 1988)”
PERFORMER “Deep Purple”
INDEX 01 31:07:62
TRACK 08 AUDIO
TITLE “King Of Dreams (Single Version)”
PERFORMER “Deep Purple”
INDEX 01 34:40:35
TRACK 09 AUDIO
TITLE “Fire In The Basement”
PERFORMER “Deep Purple”
INDEX 01 39:30:52
TRACK 10 AUDIO
TITLE “Slow Down Sister”
PERFORMER “Deep Purple”
INDEX 01 44:14:15
TRACK 11 AUDIO
TITLE “The Battle Rages On”
PERFORMER “Deep Purple”
INDEX 01 50:12:22
TRACK 12 AUDIO
TITLE “Anya (Live, 1993)”
PERFORMER “Deep Purple”
INDEX 00 56:09:51
INDEX 01 56:09:52
TRACK 13 AUDIO
TITLE “A Castle Full Of Rascals”
PERFORMER “Deep Purple”
INDEX 01 68:21:32
TRACK 14 AUDIO
TITLE “Seventh Heaven”
PERFORMER “Deep Purple”
INDEX 01 73:32:57


Leave a Reply

Your email address will not be published. Required fields are marked *

Enter the text from the image below
 

This site uses Akismet to reduce spam. Learn how your comment data is processed.