Deep Purple – Scandinavian Nights




Artist: Deep Purple
Year: 1988
Genre: Rock
Notes: Discogs
Add. Notes:
Cover incl.: Yes
Encoder: FLAC
Bitrate: ~800 kBit/s (44.1 kHz/16 Bit/s)
Log & Cue incl.: Yes
Size: 714 MB
Password: “slam” (without ” “)


All Downloads/Hosters are compatible

Download 1
KatFile.com
Turbobit.net
FileFactory.com
Rapidgator.net
Download 2
KatFile.com
Turbobit.net
FileFactory.com
Rapidgator.net

Tracklist:

1-1 - Wring That Neck - 34:22
1-2 - Speed King - 10:45
1-3 - Into The Fire - 4:47
1-4 - Paint It Black - 9:49

2-1 - Mandrake Root - 28:40
2-2 - Child In Time - 20:28
2-3 - Black Night - 7:34

EAC-Log, CUE-Sheed & NFO:

Click to open spoiler
Exact Audio Copy V1.0 beta 3 from 29. August 2011

EAC extraction logfile from 25. February 2014, 21:19

Deep Purple / Scandinavian Nights CD1

Used drive : ATAPI iHAS124 B Adapter: 1 ID: 0

Read mode : Secure
Utilize accurate stream : Yes
Defeat audio cache : Yes
Make use of C2 pointers : No

Read offset correction : 6
Overread into Lead-In and Lead-Out : No
Fill up missing offset samples with silence : Yes
Delete leading and trailing silent blocks : No
Null samples used in CRC calculations : Yes
Used interface : Installed external ASPI interface

Used output format : User Defined Encoder
Selected bitrate : 128 kBit/s
Quality : High
Add ID3 tag : Yes
Command line compressor : C:\Program Files (x86)\Exact Audio Copy\Flac\flac.exe
Additional command line options : -V -8 %source%

TOC of the extracted CD

Track | Start | Length | Start sector | End sector
———————————————————
1 | 0:00.32 | 34:22.33 | 32 | 154714
2 | 34:22.65 | 10:45.02 | 154715 | 203091
3 | 45:07.67 | 4:47.15 | 203092 | 224631
4 | 49:55.07 | 9:49.63 | 224632 | 268869

Range status and errors

Selected range

Filename G:\CD\Deep Purple – Scandinavian Nights CD1.wav

Peak level 90.6 %
Extraction speed 3.3 X
Range quality 99.9 %
Test CRC 8FDEA4FF
Copy CRC 8FDEA4FF
Copy OK

No errors occurred

AccurateRip summary

Track 1 cannot be verified as accurate (confidence 4) [7CEC46B6], AccurateRip returned [98B5292E] (AR v2)
Track 2 cannot be verified as accurate (confidence 4) [F742B2B9], AccurateRip returned [8665CFE7] (AR v2)
Track 3 cannot be verified as accurate (confidence 4) [C3014579], AccurateRip returned [C709A5DE] (AR v2)
Track 4 cannot be verified as accurate (confidence 4) [9C8AAD1A], AccurateRip returned [812A91C3] (AR v2)

No tracks could be verified as accurate
You may have a different pressing from the one(s) in the database

End of status report

—- CUETools DB Plugin V2.1.3

[CTDB TOCID: qgS237fBZj70vwfoJ9piblmH0.M-] found, Submit result: discs with pregaps not supported in this protocol version
[c0ee3187] (1/1) Differs in 29414 samples @00:00:01-00:00:41
You can use CUETools to repair this rip.

==== Log checksum 03E4CB472CD4ACAC25E0727D8D7FEE81D41335CBFE0CCC9FD0C373D1928B98F8 ====

Exact Audio Copy V1.0 beta 3 from 29. August 2011

EAC extraction logfile from 25. February 2014, 23:09

Deep Purple / Scandinavian Nights CD2

Used drive : ATAPI iHAS124 B Adapter: 1 ID: 0

Read mode : Secure
Utilize accurate stream : Yes
Defeat audio cache : Yes
Make use of C2 pointers : No

Read offset correction : 6
Overread into Lead-In and Lead-Out : No
Fill up missing offset samples with silence : Yes
Delete leading and trailing silent blocks : No
Null samples used in CRC calculations : Yes
Used interface : Installed external ASPI interface

Used output format : User Defined Encoder
Selected bitrate : 128 kBit/s
Quality : High
Add ID3 tag : Yes
Command line compressor : C:\Program Files (x86)\Exact Audio Copy\Flac\flac.exe
Additional command line options : -V -8 %source%

TOC of the extracted CD

Track | Start | Length | Start sector | End sector
———————————————————
1 | 0:00.32 | 28:40.10 | 32 | 129041
2 | 28:40.42 | 20:28.55 | 129042 | 221196
3 | 49:09.22 | 7:34.25 | 221197 | 255271

Range status and errors

Selected range

Filename G:\CD\Deep Purple – Scandinavian Nights CD2.wav

Peak level 100.0 %
Extraction speed 8.6 X
Range quality 100.0 %
Test CRC 9DBEA2A2
Copy CRC 9DBEA2A2
Copy OK

No errors occurred

AccurateRip summary

Track 1 cannot be verified as accurate (confidence 3) [526C72F8], AccurateRip returned [CD66FE5D] (AR v2)
Track 2 cannot be verified as accurate (confidence 3) [3033F9D3], AccurateRip returned [2591F3A8] (AR v2)
Track 3 cannot be verified as accurate (confidence 3) [4E035356], AccurateRip returned [31EC4F35] (AR v2)

No tracks could be verified as accurate
You may have a different pressing from the one(s) in the database

End of status report

—- CUETools DB Plugin V2.1.3

[CTDB TOCID: jmx4DiN8HdAqP4pBnK1CQnwYnJ8-] found, Submit result: discs with pregaps not supported in this protocol version
[b8659446] (1/1) Differs in 22703 samples @00:00:11-00:00:41
You can use CUETools to repair this rip.

==== Log checksum E0CE064C71A2198E4F74B1AEDB35D0B808BB21A42FF0E4E4E62CA958D0509333 ====

REM GENRE “Hard Rock”
REM DATE 1988
REM DISCID 3B0E0004
REM COMMENT “ExactAudioCopy v1.0b3”
PERFORMER “Deep Purple”
TITLE “Scandinavian Nights CD1 (1988, 2CD, DP VSOP
CD125)”
FILE “Deep Purple – Scandinavian Nights CD1.flac” WAVE
TRACK 01 AUDIO
TITLE “Wring That Neck”
PERFORMER “Deep Purple”
INDEX 00 00:00:00
INDEX 01 00:00:32
TRACK 02 AUDIO
TITLE “Speed King”
PERFORMER “Deep Purple”
INDEX 00 34:22:62
INDEX 01 34:22:65
TRACK 03 AUDIO
TITLE “Into The Fire”
PERFORMER “Deep Purple”
INDEX 00 45:07:65
INDEX 01 45:07:67
TRACK 04 AUDIO
TITLE “Paint It Black”
PERFORMER “Deep Purple”
INDEX 00 49:55:05
INDEX 01 49:55:07

REM GENRE “Hard Rock”
REM DATE 1988
REM DISCID 1F0D4B03
REM COMMENT “ExactAudioCopy v1.0b3”
PERFORMER “Deep Purple”
TITLE “Scandinavian Nights CD2 (1988, 2CD, DP VSOP
CD125)”
FILE “Deep Purple – Scandinavian Nights CD2.flac” WAVE
TRACK 01 AUDIO
TITLE “Mandrake Root”
PERFORMER “Deep Purple”
INDEX 00 00:00:00
INDEX 01 00:00:32
TRACK 02 AUDIO
TITLE “Child In Time”
PERFORMER “Deep Purple”
INDEX 00 28:40:40
INDEX 01 28:40:42
TRACK 03 AUDIO
TITLE “Black Night”
PERFORMER “Deep Purple”
INDEX 00 49:09:20
INDEX 01 49:09:22


Leave a Reply

Your email address will not be published. Required fields are marked *

This site uses Akismet to reduce spam. Learn how your comment data is processed.