Deep Purple & Royal Philharmonic Orchestra – Concerto For Group And Orchestra (Reissue)




Artist: Deep Purple & Royal Philharmonic Orchestra
Year: 1969/1990
Genre: Rock
Notes: Discogs
Add. Notes: Reissue
Cover incl.: Yes
Encoder: FLAC
Bitrate: ~800 kBit/s (44.1 kHz/16 Bit/s)
Log & Cue incl.: Yes
Size: 436 MB
Password: “slam” (without ” “)


All Downloads/Hosters are compatible

Download 1
KatFile.com
Rapidgator.net
Turbobit.net
FileFactory.com
Download 2
KatFile.com
Rapidgator.net
Turbobit.net
FileFactory.com

Tracklist:

1 - Wring That Neck - 12:51
2 - Child In Time - 12:27
3 - First Movement: Moderato - 
Allegro - 19:06
4 - Second Movement: Andante - 
19:01
5 - Third Movement: Vivace - Presto - 
15:24

EAC-Log, CUE-Sheed & NFO:

Click to open spoiler
Exact Audio Copy V1.0 beta 3 from 29. August 2011

EAC extraction logfile from 5. January 2014, 10:57

Deep Purple & The Royal Philharmonic Orchestra / Concerto For Group And Orchestra

Used drive : ATAPI iHAS124 B Adapter: 2 ID: 0

Read mode : Secure
Utilize accurate stream : Yes
Defeat audio cache : Yes
Make use of C2 pointers : No

Read offset correction : 6
Overread into Lead-In and Lead-Out : No
Fill up missing offset samples with silence : Yes
Delete leading and trailing silent blocks : No
Null samples used in CRC calculations : Yes
Used interface : Native Win32 interface for Win NT & 2000

Used output format : User Defined Encoder
Selected bitrate : 1024 kBit/s
Quality : High
Add ID3 tag : No
Command line compressor : C:\Program Files (x86)\Exact Audio Copy\FLAC\FLAC.EXE
Additional command line options : -8 -V -T “ARTIST=%artist%” -T “TITLE=%title%” -T “ALBUM=%albumtitle%” -T “DATE=%year%” -T “TRACKNUMBER=%tracknr%” -T “GENRE=%genre%” -T “PERFORMER=%albuminterpret%” -T “COMPOSER=%composer%” %haslyrics%–tag-from-file=LYRICS=”%lyricsfile%”%haslyrics% -T “ALBUMARTIST=%albumartist%” -T “DISCNUMBER=%cdnumber%” -T “TOTALDISCS=%totalcds%” -T “TOTALTRACKS=%numtracks%” -T “COMMENT=%comment%” %source% -o %dest%

TOC of the extracted CD

Track | Start | Length | Start sector | End sector
———————————————————
1 | 0:00.33 | 12:50.55 | 33 | 57837
2 | 12:51.13 | 12:27.35 | 57838 | 113897
3 | 25:18.48 | 19:05.47 | 113898 | 199819
4 | 44:24.20 | 19:00.65 | 199820 | 285384
5 | 63:25.10 | 15:24.38 | 285385 | 354722

Range status and errors

Selected range

Filename G:\CD\Deep Purple – Concerto For Group And Orchestra.wav

Peak level 100.0 %
Extraction speed 6.9 X
Range quality 99.9 %
Test CRC 9408E640
Copy CRC 9408E640
Copy OK

No errors occurred

AccurateRip summary

Track 1 accurately ripped (confidence 25) [24F390C6] (AR v2)
Track 2 accurately ripped (confidence 25) [9C126087] (AR v2)
Track 3 accurately ripped (confidence 24) [EA70C6A7] (AR v2)
Track 4 accurately ripped (confidence 24) [89E52FE1] (AR v2)
Track 5 accurately ripped (confidence 26) [78053C28] (AR v2)

All tracks accurately ripped

End of status report

==== Log checksum 38739FF39A766E71AE6E3A2F332768C7CE5F9998A586DF873BE9044D8A806A0D ====

REM GENRE “Hard Rock”
REM DATE 1969
REM DISCID 41127905
REM COMMENT “ExactAudioCopy v1.0b3”
CATALOG 0000000000000
PERFORMER “Deep Purple & The Royal Philharmonic Orchestra”
TITLE “Concerto For Group And Orchestra (1990, CDP 7 97886 2)”
FILE “Deep Purple – Concerto For Group And Orchestra.flac” WAVE
TRACK 01 AUDIO
TITLE “Wring That Neck [Bonus Track]”
PERFORMER “Deep Purple & The Royal Philharmonic Orchestra”
INDEX 00 00:00:00
INDEX 01 00:00:33
TRACK 02 AUDIO
TITLE “Child In Time [Bonus Track]”
PERFORMER “Deep Purple & The Royal Philharmonic Orchestra”
INDEX 00 12:49:40
INDEX 01 12:51:13
TRACK 03 AUDIO
TITLE “First Movement – Moderato ~ Allegro”
PERFORMER “Deep Purple & The Royal Philharmonic Orchestra”
INDEX 00 25:15:65
INDEX 01 25:18:48
TRACK 04 AUDIO
TITLE “Second Movement – Andante”
PERFORMER “Deep Purple & The Royal Philharmonic Orchestra”
INDEX 00 44:22:63
INDEX 01 44:24:20
TRACK 05 AUDIO
TITLE “Third Movement – Vivace ~ Presto”
PERFORMER “Deep Purple & The Royal Philharmonic Orchestra”
INDEX 00 63:23:30
INDEX 01 63:25:10


Leave a Reply

Your email address will not be published. Required fields are marked *

Enter the text from the image below
 

This site uses Akismet to reduce spam. Learn how your comment data is processed.