Deep Purple – Purpendicular




Artist: Deep Purple
Year: 1996
Genre: Rock
Notes: Discogs
Add. Notes:
Cover incl.: Yes
Encoder: FLAC
Bitrate: ~1000 kBit/s (44.1 kHz/16 Bit/s)
Log & Cue incl.: Yes/Yes
Size: 514,8 MB
Password: “slam” (without ” “)


All Downloads/Hosters are compatible

Download 1
KatFile.com
Turbobit.net
FileFactory.com
Rapidgator.net
Download 2
KatFile.com
Turbobit.net
FileFactory.com
Rapidgator.net

Tracklist:

1 Vavoom : Ted The Mechanic 4:16
2 Loosen My Strings 5:57
3 Soon Forgotten 4:47
4 Sometimes I Feel Like Screaming 7:29
5 Cascades : I'm Not Your Lover 4:43
6 The Aviator 5:20
7 Rosa's Cantina 5:10
8 A Castle Full Of Rascals 5:11
9 A Touch Away 4:36
10 Hey Cisco 5:53
11 Somebody Stole My Guitar 4:09
12 The Purpendicular Waltz 4:45

EAC-Log, CUE-Sheed & NFO:

Click to open spoiler
Exact Audio Copy V1.0 beta 3 from 29. August 2011

EAC extraction logfile from 9. July 2013, 20:56

Deep Purple / Purpendicular

Used drive : ATAPI iHAS124 B Adapter: 2 ID: 0

Read mode : Secure
Utilize accurate stream : Yes
Defeat audio cache : Yes
Make use of C2 pointers : No

Read offset correction : 6
Overread into Lead-In and Lead-Out : No
Fill up missing offset samples with silence : Yes
Delete leading and trailing silent blocks : No
Null samples used in CRC calculations : Yes
Used interface : Native Win32 interface for Win NT & 2000

Used output format : User Defined Encoder
Selected bitrate : 1024 kBit/s
Quality : High
Add ID3 tag : No
Command line compressor : C:\Program Files (x86)\Exact Audio Copy\FLAC\FLAC.EXE
Additional command line options : -8 -V -T “ARTIST=%artist%” -T “TITLE=%title%” -T “ALBUM=%albumtitle%” -T “DATE=%year%” -T “TRACKNUMBER=%tracknr%” -T “GENRE=%genre%” -T “PERFORMER=%albuminterpret%” -T “COMPOSER=%composer%” %haslyrics%–tag-from-file=LYRICS=”%lyricsfile%”%haslyrics% -T “ALBUMARTIST=%albumartist%” -T “DISCNUMBER=%cdnumber%” -T “TOTALDISCS=%totalcds%” -T “TOTALTRACKS=%numtracks%” -T “COMMENT=%comment%” %source% -o %dest%

TOC of the extracted CD

Track | Start | Length | Start sector | End sector
———————————————————
1 | 0:00.00 | 4:17.50 | 0 | 19324
2 | 4:17.50 | 5:59.40 | 19325 | 46289
3 | 10:17.15 | 4:47.57 | 46290 | 67871
4 | 15:04.72 | 7:31.58 | 67872 | 101754
5 | 22:36.55 | 4:43.45 | 101755 | 123024
6 | 27:20.25 | 5:20.67 | 123025 | 147091
7 | 32:41.17 | 5:12.28 | 147092 | 170519
8 | 37:53.45 | 5:11.40 | 170520 | 193884
9 | 43:05.10 | 4:36.32 | 193885 | 214616
10 | 47:41.42 | 5:53.58 | 214617 | 241149
11 | 53:35.25 | 4:09.27 | 241150 | 259851
12 | 57:44.52 | 4:43.35 | 259852 | 281111

Range status and errors

Selected range

Filename G:\CD\Deep Purple – Purpendicular.wav

Peak level 100.0 %
Extraction speed 6.3 X
Range quality 100.0 %
Test CRC 159F52A7
Copy CRC 159F52A7
Copy OK

No errors occurred

AccurateRip summary

Track 1 accurately ripped (confidence 15) [4A1CBBB1] (AR v2)
Track 2 accurately ripped (confidence 15) [E771E6B4] (AR v2)
Track 3 accurately ripped (confidence 15) [3DC15770] (AR v2)
Track 4 accurately ripped (confidence 15) [B9FAF475] (AR v2)
Track 5 accurately ripped (confidence 15) [369039E5] (AR v2)
Track 6 accurately ripped (confidence 14) [F25EF00C] (AR v2)
Track 7 accurately ripped (confidence 15) [2C89F82A] (AR v2)
Track 8 accurately ripped (confidence 15) [AC75E0BF] (AR v2)
Track 9 accurately ripped (confidence 15) [AC6109A1] (AR v2)
Track 10 accurately ripped (confidence 15) [20932E28] (AR v2)
Track 11 accurately ripped (confidence 15) [8D74AD61] (AR v2)
Track 12 accurately ripped (confidence 15) [0E751E87] (AR v2)

All tracks accurately ripped

End of status report

==== Log checksum 4EDB9AC9F7BB7E8E07FDE752D8C16573EE8D7EA349D0418ABAD9D8C4D23419EE ====

REM GENRE “Hard Rock”
REM DATE 1996
REM DISCID BB0EA40C
REM COMMENT “ExactAudioCopy v1.0b3”
PERFORMER “Deep Purple”
TITLE “Purpendicular (1996, 7432338022)”
FILE “Deep Purple – Purpendicular.flac” WAVE
TRACK 01 AUDIO
TITLE “Vavoom: Ted the Mechanic”
PERFORMER “Deep Purple”
INDEX 01 00:00:00
TRACK 02 AUDIO
TITLE “Loosen My Strings”
PERFORMER “Deep Purple”
INDEX 00 04:16:47
INDEX 01 04:17:50
TRACK 03 AUDIO
TITLE “Soon Forgotten”
PERFORMER “Deep Purple”
INDEX 00 10:14:45
INDEX 01 10:17:15
TRACK 04 AUDIO
TITLE “Sometimes I Feel Like Screaming”
PERFORMER “Deep Purple”
INDEX 00 15:04:65
INDEX 01 15:04:72
TRACK 05 AUDIO
TITLE “Cascades: I’m Not Your Lover”
PERFORMER “Deep Purple”
INDEX 00 22:34:07
INDEX 01 22:36:55
TRACK 06 AUDIO
TITLE “The Aviator”
PERFORMER “Deep Purple”
INDEX 00 27:19:30
INDEX 01 27:20:25
TRACK 07 AUDIO
TITLE “Rosa’s Cantina”
PERFORMER “Deep Purple”
INDEX 00 32:40:17
INDEX 01 32:41:17
TRACK 08 AUDIO
TITLE “A Castle Full of Rascals”
PERFORMER “Deep Purple”
INDEX 00 37:50:20
INDEX 01 37:53:45
TRACK 09 AUDIO
TITLE “A Touch Away”
PERFORMER “Deep Purple”
INDEX 00 43:02:57
INDEX 01 43:05:10
TRACK 10 AUDIO
TITLE “Hey Cisco”
PERFORMER “Deep Purple”
INDEX 01 47:41:42
TRACK 11 AUDIO
TITLE “Somebody Stole My Guitar”
PERFORMER “Deep Purple”
INDEX 00 53:34:72
INDEX 01 53:35:25
TRACK 12 AUDIO
TITLE “The Purpendicular Waltz”
PERFORMER “Deep Purple”
INDEX 00 57:43:62
INDEX 01 57:44:52


Leave a Reply

Your email address will not be published. Required fields are marked *

Enter the text from the image below
 

This site uses Akismet to reduce spam. Learn how your comment data is processed.