Deep Purple – Purpendicular (Remastered)




Artist: Deep Purple
Year: 1996/2014
Genre: Rock
Notes: Discogs
Add. Notes: Remastered
Encoder: FLAC
Bitrate: ~1000 kBit/s (44.1 kHz/16 Bit/s)
Size: 577 MB
Password: “slam” (without ” “)


http://www.share-online.biz/dl/EKB62WPPG36 http://www.share-online.biz/dl/UUB62WPPNWD http://www.share-online.biz/dl/XCD62WPPBNG
https://rapidgator.net/file/7d1123035eb913825f67fb2e54f6306c/DeePur-1996Purpe.part1.rar https://rapidgator.net/file/3df77b9c0d8fad986eac9339de65d7a9/DeePur-1996Purpe.part2.rar https://rapidgator.net/file/4ca918bba21a3d2efc9384c45ef3f5e5/DeePur-1996Purpe.part3.rar
https://ayefiles.com/hd6bonc0s2vk/DeePur-1996Purpe.part1.rar.html https://ayefiles.com/52omx73zb06v/DeePur-1996Purpe.part2.rar.html https://ayefiles.com/p5cmnmf1d7ts/DeePur-1996Purpe.part3.rar.html
Onlinestatus: Turbobit.net Rapidgator.net AyeFiles.com

Tracklist:

1 - Vavoom: Ted The Mechanic - 4:17
2 - Loosen My Strings - 5:59
3 - Soon Forgotten - 4:47
4 - Sometimes I Feel Like Screaming - 
7:31
5 - Cascades: Im Not Your Lover - 
4:43
6 - The Aviator - 5:20
7 - Rosas Cantina - 5:12
8 - A Castle Full Of Rascals - 5:11
9 - A Touch Away - 4:36
10 - Hey Cisco - 5:54
11 - Somebody Stole My Guitar - 
4:09
12 - The Purpendicular Waltz - 4:47
Bonus Tracks
13 - Dont Hold Your Breath (Japan 
Bonus Track) - 4:39
14 - Sometimes I Feel Like Screaming 
(Single Edit) - 4:35

EAC-Log, CUE-Sheed & NFO:

Click to open spoiler
Exact Audio Copy V1.0 beta 3 from 29. August 2011

EAC extraction logfile from 28. August 2014, 12:02

Deep Purple / Purpendicular (2014)

Used drive : Optiarc BD RW BD-5300S Adapter: 0 ID: 0

Read mode : Secure
Utilize accurate stream : Yes
Defeat audio cache : Yes
Make use of C2 pointers : No

Read offset correction : 6
Overread into Lead-In and Lead-Out : No
Fill up missing offset samples with silence : Yes
Delete leading and trailing silent blocks : No
Null samples used in CRC calculations : Yes
Used interface : Installed external ASPI interface

Used output format : User Defined Encoder
Selected bitrate : 128 kBit/s
Quality : High
Add ID3 tag : Yes
Command line compressor : C:\Program Files (x86)\Exact Audio Copy\Flac\flac.exe
Additional command line options : -V -8 -T “Date=%year%” -T “Genre=%genre%” %source%

TOC of the extracted CD

Track | Start | Length | Start sector | End sector
———————————————————
1 | 0:00.00 | 4:17.67 | 0 | 19341
2 | 4:17.67 | 5:59.34 | 19342 | 46300
3 | 10:17.26 | 4:47.60 | 46301 | 67885
4 | 15:05.11 | 7:31.52 | 67886 | 101762
5 | 22:36.63 | 4:43.49 | 101763 | 123036
6 | 27:20.37 | 5:20.65 | 123037 | 147101
7 | 32:41.27 | 5:12.36 | 147102 | 170537
8 | 37:53.63 | 5:11.40 | 170538 | 193902
9 | 43:05.28 | 4:36.06 | 193903 | 214608
10 | 47:41.34 | 5:54.09 | 214609 | 241167
11 | 53:35.43 | 4:09.63 | 241168 | 259905
12 | 57:45.31 | 4:47.34 | 259906 | 281464
13 | 62:32.65 | 4:39.69 | 281465 | 302458
14 | 67:12.59 | 4:35.35 | 302459 | 323118

Range status and errors

Selected range

Filename G:\CD\Deep Purple – Purpendicular (2014).wav

Peak level 97.7 %
Extraction speed 3.8 X
Range quality 100.0 %
Test CRC FD001D10
Copy CRC FD001D10
Copy OK

No errors occurred

AccurateRip summary

Track 1 accurately ripped (confidence 1) [CE37A6EC] (AR v2)
Track 2 accurately ripped (confidence 2) [9D48728A] (AR v2)
Track 3 accurately ripped (confidence 2) [126DE427] (AR v2)
Track 4 accurately ripped (confidence 1) [5BB58DF4] (AR v2)
Track 5 accurately ripped (confidence 1) [DF8B7A44] (AR v2)
Track 6 accurately ripped (confidence 2) [7ABB60DC] (AR v2)
Track 7 accurately ripped (confidence 2) [18760460] (AR v2)
Track 8 accurately ripped (confidence 1) [3D43C277] (AR v2)
Track 9 accurately ripped (confidence 2) [98D1935E] (AR v2)
Track 10 accurately ripped (confidence 2) [B50CE4E7] (AR v2)
Track 11 accurately ripped (confidence 2) [E05FFDD8] (AR v2)
Track 12 accurately ripped (confidence 2) [30CAB338] (AR v2)
Track 13 accurately ripped (confidence 2) [434620C9] (AR v2)
Track 14 accurately ripped (confidence 2) [54BBFBFB] (AR v2)

All tracks accurately ripped

End of status report

—- CUETools DB Plugin V2.1.3

[CTDB TOCID: ZFsGcm7cBaTXg27O05A556LIRsg-] found, Submit result: already submitted
[3f42514e] (3/4) Accurately ripped
[c6761aec] (1/4) Differs in 900 samples @01:43:58,19:01:30,19:49:10,26:12:07,41:43:04
You can use CUETools to repair this rip.

==== Log checksum 20D43B6E187B54A3572F02523E8187BB54857C3CBB9EC27B5888D85F04D7DF17 ====

REM GENRE “Hard Rock”
REM DATE 1996
REM DISCID DB10D40E
REM COMMENT “ExactAudioCopy v1.0b3”
PERFORMER “Deep Purple”
TITLE “Purpendicular (2014, HNECD041)”
FILE “Deep Purple – Purpendicular (2014).flac” WAVE
TRACK 01 AUDIO
TITLE “Vavoom: Ted The Mechanic”
PERFORMER “Deep Purple”
ISRC USBI19500093
INDEX 01 00:00:00
TRACK 02 AUDIO
TITLE “Loosen My Strings”
PERFORMER “Deep Purple”
ISRC USBI19500094
INDEX 01 04:17:67
TRACK 03 AUDIO
TITLE “Soon Forgotten”
PERFORMER “Deep Purple”
ISRC USBI19500095
INDEX 01 10:17:26
TRACK 04 AUDIO
TITLE “Sometimes I Feel Like Screaming”
PERFORMER “Deep Purple”
ISRC USBI19500096
INDEX 01 15:05:11
TRACK 05 AUDIO
TITLE “Cascades: I’m Not Your Lover”
PERFORMER “Deep Purple”
ISRC USBI19500097
INDEX 01 22:36:63
TRACK 06 AUDIO
TITLE “The Aviator”
PERFORMER “Deep Purple”
ISRC USBI19500098
INDEX 01 27:20:37
TRACK 07 AUDIO
TITLE “Rosa’s Cantina”
PERFORMER “Deep Purple”
ISRC USBI19500099
INDEX 01 32:41:27
TRACK 08 AUDIO
TITLE “A Castle Full Of Rascals”
PERFORMER “Deep Purple”
ISRC USBI19500100
INDEX 01 37:53:63
TRACK 09 AUDIO
TITLE “A Touch Away”
PERFORMER “Deep Purple”
ISRC USBI19500101
INDEX 01 43:05:28
TRACK 10 AUDIO
TITLE “Hey Cisco”
PERFORMER “Deep Purple”
ISRC USBI19500102
INDEX 01 47:41:34
TRACK 11 AUDIO
TITLE “Somebody Stole My Guitar”
PERFORMER “Deep Purple”
ISRC USBI19500103
INDEX 01 53:35:43
TRACK 12 AUDIO
TITLE “The Purpendicular Waltz”
PERFORMER “Deep Purple”
ISRC USBI19500104
INDEX 01 57:45:31
TRACK 13 AUDIO
TITLE “Don’t Hold Your Breath (Japan bonus track)”
PERFORMER “Deep Purple”
ISRC JPBV09601619
INDEX 00 62:29:33
INDEX 01 62:32:65
TRACK 14 AUDIO
TITLE “Sometimes I Feel Like Screaming (single edit)”
PERFORMER “Deep Purple”
ISRC USBI19500111
INDEX 01 67:12:59

Leave a Reply

Your email address will not be published. Required fields are marked *

This site uses Akismet to reduce spam. Learn how your comment data is processed.