Deep Purple – Phoenix Rising




No Cover available

Artist: Deep Purple
Year: 2011
Genre: Rock
Notes: Discogs
Add. Notes:
Watch Songs on: YouTube
Cover incl.: Yes
Encoder: FLAC
Bitrate: ~1000 kBit/s (44.1 kHz/16 Bit/s)
Log & Cue incl.: Yes/Yes
Size: 569 MB
Password: “slam” (without ” “)


All Downloads/Hosters are compatible

Download 1
KatFile.com
Turbobit.net
Rapidgator.net
DoUploads.net
Download 2
KatFile.com
Turbobit.net
Rapidgator.net
DoUploads.net

Tracklist:

1 Burn 
2 Getting Tighter 
3 Love Child 
4 Smoke On The Water/Georgia On My Mind 
5 Lazy 
6 Homeward Strut 
7 You Keep On Moving 
8 Stormbringer 

EAC-Log, CUE-Sheed & NFO:

Click to open spoiler
Exact Audio Copy V1.0 beta 3 from 29. August 2011

EAC extraction logfile from 9. July 2013, 20:29

Deep Purple / Phoenix Rising

Used drive : ATAPI iHAS124 B Adapter: 2 ID: 0

Read mode : Secure
Utilize accurate stream : Yes
Defeat audio cache : Yes
Make use of C2 pointers : No

Read offset correction : 6
Overread into Lead-In and Lead-Out : No
Fill up missing offset samples with silence : Yes
Delete leading and trailing silent blocks : No
Null samples used in CRC calculations : Yes
Used interface : Native Win32 interface for Win NT & 2000

Used output format : User Defined Encoder
Selected bitrate : 1024 kBit/s
Quality : High
Add ID3 tag : No
Command line compressor : C:\Program Files (x86)\Exact Audio Copy\FLAC\FLAC.EXE
Additional command line options : -8 -V -T “ARTIST=%artist%” -T “TITLE=%title%” -T “ALBUM=%albumtitle%” -T “DATE=%year%” -T “TRACKNUMBER=%tracknr%” -T “GENRE=%genre%” -T “PERFORMER=%albuminterpret%” -T “COMPOSER=%composer%” %haslyrics%–tag-from-file=LYRICS=”%lyricsfile%”%haslyrics% -T “ALBUMARTIST=%albumartist%” -T “DISCNUMBER=%cdnumber%” -T “TOTALDISCS=%totalcds%” -T “TOTALTRACKS=%numtracks%” -T “COMMENT=%comment%” %source% -o %dest%

TOC of the extracted CD

Track | Start | Length | Start sector | End sector
———————————————————
1 | 0:00.00 | 8:09.06 | 0 | 36680
2 | 8:09.06 | 15:04.48 | 36681 | 104528
3 | 23:13.54 | 4:23.41 | 104529 | 124294
4 | 27:37.20 | 9:29.43 | 124295 | 167012
5 | 37:06.63 | 11:49.70 | 167013 | 220257
6 | 48:56.58 | 5:44.32 | 220258 | 246089
7 | 54:41.15 | 5:44.44 | 246090 | 271933
8 | 60:25.59 | 9:47.36 | 271934 | 315994

Range status and errors

Selected range

Filename G:\CD\Deep Purple – Phoenix Rising.wav

Peak level 100.0 %
Extraction speed 6.6 X
Range quality 100.0 %
Test CRC D73A475E
Copy CRC D73A475E
Copy OK

No errors occurred

AccurateRip summary

Track 1 accurately ripped (confidence 8) [22704595] (AR v2)
Track 2 accurately ripped (confidence 7) [AFED53EE] (AR v2)
Track 3 accurately ripped (confidence 7) [9FE1E3F2] (AR v2)
Track 4 accurately ripped (confidence 7) [3DC80D1B] (AR v2)
Track 5 accurately ripped (confidence 7) [165D1372] (AR v2)
Track 6 accurately ripped (confidence 7) [19702E69] (AR v2)
Track 7 accurately ripped (confidence 7) [919E27BF] (AR v2)
Track 8 accurately ripped (confidence 7) [931DD890] (AR v2)

All tracks accurately ripped

End of status report

==== Log checksum 4E156EC1631B4D4E5F6A66D47517E3CC59A82E81498417DF10EB3782B497949B ====

REM GENRE “Hard Rock”
REM DATE 2011
REM DISCID 7D107508
REM COMMENT “ExactAudioCopy v1.0b3”
PERFORMER “Deep Purple”
TITLE “Phoenix Rising (2011, CD+DVD, 0206601ERE)”
FILE “Deep Purple – Phoenix Rising.flac” WAVE
TRACK 01 AUDIO
TITLE “Burn (Longbeach)”
PERFORMER “Deep Purple”
INDEX 01 00:00:00
TRACK 02 AUDIO
TITLE “Gettin’ Tighter (Japan)”
PERFORMER “Deep Purple”
INDEX 01 08:09:06
TRACK 03 AUDIO
TITLE “Love Child (Japan)”
PERFORMER “Deep Purple”
INDEX 01 23:13:54
TRACK 04 AUDIO
TITLE “Smoke On The Water (Japan) / Georgia On My Mind (Japan)”
PERFORMER “Deep Purple”
INDEX 01 27:37:20
TRACK 05 AUDIO
TITLE “Lazy (Longbeach)”
PERFORMER “Deep Purple”
INDEX 01 37:06:63
TRACK 06 AUDIO
TITLE “Homeward Strut (Longbeach)”
PERFORMER “Deep Purple”
INDEX 01 48:56:58
TRACK 07 AUDIO
TITLE “You Keep On Moving (Japan)”
PERFORMER “Deep Purple”
INDEX 01 54:41:15
TRACK 08 AUDIO
TITLE “Stormbringer (Longbeach)”
PERFORMER “Deep Purple”
INDEX 01 60:25:59


Leave a Reply

Your email address will not be published. Required fields are marked *

Enter the text from the image below
 

This site uses Akismet to reduce spam. Learn how your comment data is processed.