Deep Purple – Perks And Tit




No Cover available

Artist: Deep Purple
Year: 2003
Genre: Rock
Notes: Discogs
Add. Notes:
Watch Songs on: YouTube
Cover incl.: Yes
Encoder: FLAC
Bitrate: ~700 kBit/s (44.1 kHz/16 Bit/s)
Log & Cue incl.: Yes/Yes
Size: 255,2 MB
Password: “slam” (without ” “)


All Downloads/Hosters are compatible

Download 1
KatFile.com
Turbobit.net
FileFactory.com
Rapidgator.net
Download 2
KatFile.com
Turbobit.net
FileFactory.com
Rapidgator.net

Tracklist:

1 Burn 8:46
2 Might Just Take Your Life 4:41
3 Lay Down, Stay Down 4:48
4 Mistreated 12:00
5 Smoke On The Water 10:28
6 Keyboard Solo 4:31

EAC-Log, CUE-Sheed & NFO:

Click to open spoiler
Exact Audio Copy V0.99 prebeta 5 from 4. May 2009

Отчёт EAC об извлечении, выполненном 18. февраля 2011, 17:38

Deep Purple / Perks And Tit

Дисковод: Optiarc DVD RW AD-7240S Adapter: 1 ID: 0

Режим чтения : Достоверность
Использование точного потока : Да
Отключение кэша аудио : Да
Использование указателей C2 : Нет

Коррекция смещения при чтении : 48
Способность читать области Lead-in и Lead-out : Нет
Заполнение пропущенных сэмплов тишиной : Да
Удаление блоков с тишиной в начале и конце : Нет
При вычислениях CRC использовались нулевые сэмплы : Да
Интерфейс : Встроенный Win32-интерфейс для Win NT/2000

Выходной формат : Пользовательский кодировщик
Выбранный битрейт : 768 kBit/s
Качество : Высокий
Добавление ID3-тэга : Нет
Утилита сжатия : C:\Program Files\Exact Audio Copy\FLAC\FLAC.EXE
Дополнительные параметры : -6 -V -T “ARTIST=%a” -T “TITLE=%t” -T “ALBUM=%g” -T “DATE=%y” -T “TRACKNUMBER=%n” -T “GENRE=%m” -T “COMMENT=%e” %s -o %d

TOC извлечённого CD

Трек | Старт | Длительность | Начальный сектор | Конечный сектор
———————————————————————
1 | 0:00.00 | 10:08.23 | 0 | 45622
2 | 10:08.23 | 5:35.15 | 45623 | 70762
3 | 15:43.38 | 5:40.26 | 70763 | 96288
4 | 21:23.64 | 12:31.66 | 96289 | 152679
5 | 33:55.55 | 10:29.69 | 152680 | 199923
6 | 44:25.49 | 4:31.47 | 199924 | 220295

Характеристики диапазона извлечения и сообщения об ошибках

Выбранный диапазон

Имя файла E:\music\Deep Purple 1 press\Deep Purple Live\Deep Purple Perks And Tit 1974\Deep Purple – Perks And Tit.wav

Пиковый уровень 98.8 %
Качество диапазона 100.0 %
CRC теста BB525A09
CRC копии BB525A09
Копирование… OK

Ошибок не произошло

AccurateRip: сводка

Трек 1 точное извлечение (доверие 5) [9951F350]
Трек 2 точное извлечение (доверие 5) [07FBFC12]
Трек 3 точное извлечение (доверие 5) [EBED319E]
Трек 4 точное извлечение (доверие 5) [D52B2EB1]
Трек 5 точное извлечение (доверие 5) [C1A988C4]
Трек 6 точное извлечение (доверие 5) [A88BDF38]

Все треки извлечены точно

Конец отчёта

REM GENRE “Hard Rock”
REM DATE 1974
REM DISCID 4C0B7906
REM COMMENT “ExactAudioCopy v0.99pb5”
PERFORMER “Deep Purple”
TITLE “Perks And Tit (2003, PUR 206)”
FILE “Deep Purple – Perks And Tit.flac” WAVE
TRACK 01 AUDIO
TITLE “Burn”
PERFORMER “Deep Purple”
INDEX 01 00:00:00
TRACK 02 AUDIO
TITLE “Might Just Take Your Life”
PERFORMER “Deep Purple”
INDEX 00 08:46:26
INDEX 01 10:08:23
TRACK 03 AUDIO
TITLE “Lay Down, Stay Down”
PERFORMER “Deep Purple”
INDEX 00 14:50:03
INDEX 01 15:43:38
TRACK 04 AUDIO
TITLE “Mistreated”
PERFORMER “Deep Purple”
INDEX 00 20:32:21
INDEX 01 21:23:64
TRACK 05 AUDIO
TITLE “Smoke On The Water”
PERFORMER “Deep Purple”
INDEX 00 33:24:46
INDEX 01 33:55:55
TRACK 06 AUDIO
TITLE “Keyboard Solo”
PERFORMER “Deep Purple”
INDEX 00 44:24:48
INDEX 01 44:25:49


Leave a Reply

Your email address will not be published. Required fields are marked *

Enter the text from the image below
 

This site uses Akismet to reduce spam. Learn how your comment data is processed.