Deep Purple – Perfect Strangers




Artist: Deep Purple
Year: 1984
Genre: Rock
Notes: Discogs
Add. Notes:
Cover incl.: Yes
Encoder: FLAC
Bitrate: ~900 kBit/s (44.1 kHz/16 Bit/s)
Log & Cue incl.: Yes
Size: 318 MB
Password: “slam” (without ” “)


All Downloads/Hosters are compatible

Download 1
KatFile.com
Turbobit.net
Rapidgator.net
Turbobit.net
Download 2
KatFile.com
Turbobit.net
Rapidgator.net
Turbobit.net

Tracklist:

1 - Knocking At Your Back Door - 
7:00
2 - Under The Gun - 4:35
3 - Nobody's Home - 3:55
4 - Mean Streak - 4:20
5 - Perfect Strangers - 5:23
6 - A Gypsy's Kiss - 4:40
7 - Wasted Sunsets - 3:55
8 - Hungry Daze - 4:44
9 - Not Responsible - 4:36

EAC-Log, CUE-Sheed & NFO:

Click to open spoiler
Exact Audio Copy V0.99 prebeta 5 from 4. May 2009

Отчёт EAC об извлечении, выполненном 12. февраля 2011, 20:09

Deep Purple / (1984) Perfect Strangers

Дисковод: Optiarc DVD RW AD-7240S Adapter: 1 ID: 0

Режим чтения : Достоверность
Использование точного потока : Да
Отключение кэша аудио : Да
Использование указателей C2 : Нет

Коррекция смещения при чтении : 48
Способность читать области Lead-in и Lead-out : Нет
Заполнение пропущенных сэмплов тишиной : Да
Удаление блоков с тишиной в начале и конце : Нет
При вычислениях CRC использовались нулевые сэмплы : Да
Интерфейс : Встроенный Win32-интерфейс для Win NT/2000

Выходной формат : Пользовательский кодировщик
Выбранный битрейт : 768 kBit/s
Качество : Высокий
Добавление ID3-тэга : Нет
Утилита сжатия : C:\Program Files\Exact Audio Copy\FLAC\FLAC.EXE
Дополнительные параметры : -6 -V -T “ARTIST=%a” -T “TITLE=%t” -T “ALBUM=%g” -T “DATE=%y” -T “TRACKNUMBER=%n” -T “GENRE=%m” -T “COMMENT=%e” %s -o %d

TOC извлечённого CD

Трек | Старт | Длительность | Начальный сектор | Конечный сектор
———————————————————————
1 | 0:00.33 | 7:04.62 | 33 | 31894
2 | 7:05.20 | 4:34.43 | 31895 | 52487
3 | 11:39.63 | 3:59.60 | 52488 | 70472
4 | 15:39.48 | 4:20.42 | 70473 | 90014
5 | 20:00.15 | 5:21.60 | 90015 | 114149
6 | 25:22.00 | 5:12.13 | 114150 | 137562
7 | 30:34.13 | 3:57.45 | 137563 | 155382
8 | 34:31.58 | 4:56.65 | 155383 | 177647
9 | 39:28.48 | 4:45.07 | 177648 | 199029

Характеристики диапазона извлечения и сообщения об ошибках

Выбранный диапазон

Имя файла E:\music\Deep Purple 1 press\Deep Purple – Perfect Strangers 1984\Deep Purple – (1984) Perfect Strangers.wav

Пиковый уровень 87.0 %
Качество диапазона 100.0 %
CRC теста 1C7140C9
CRC копии 1C7140C9
Копирование… OK

Ошибок не произошло

AccurateRip: сводка

Трек 1 точное извлечение (доверие 70) [518F1233]
Трек 2 точное извлечение (доверие 70) [50C354A1]
Трек 3 точное извлечение (доверие 69) [B4D5A570]
Трек 4 точное извлечение (доверие 70) [81445DE8]
Трек 5 точное извлечение (доверие 72) [9E677644]
Трек 6 точное извлечение (доверие 70) [C58BC68D]
Трек 7 точное извлечение (доверие 71) [F1E5BF39]
Трек 8 точное извлечение (доверие 70) [3355C9E7]
Трек 9 точное извлечение (доверие 69) [451C5DA7]

Все треки извлечены точно

Конец отчёта

REM GENRE “Hard Rock”
REM DATE 1984
REM DISCID 600A5D09
REM COMMENT “ExactAudioCopy v0.99pb5”
PERFORMER “Deep Purple”
TITLE “Perfect Strangers (1984, 823777 2)”
FILE “Deep Purple – (1984) Perfect Strangers.flac” WAVE
TRACK 01 AUDIO
TITLE “Knocking At Your Back Door”
PERFORMER “Deep Purple”
INDEX 00 00:00:00
INDEX 01 00:00:33
TRACK 02 AUDIO
TITLE “Under The Gun”
PERFORMER “Deep Purple”
INDEX 00 07:03:20
INDEX 01 07:05:20
TRACK 03 AUDIO
TITLE “Nobody’s Home”
PERFORMER “Deep Purple”
INDEX 00 11:37:63
INDEX 01 11:39:63
TRACK 04 AUDIO
TITLE “Mean Streak”
PERFORMER “Deep Purple”
INDEX 00 15:37:48
INDEX 01 15:39:48
TRACK 05 AUDIO
TITLE “Perfect Strangers”
PERFORMER “Deep Purple”
INDEX 00 19:58:15
INDEX 01 20:00:15
TRACK 06 AUDIO
TITLE “A Gypsy’s Kiss”
PERFORMER “Deep Purple”
INDEX 00 25:20:00
INDEX 01 25:22:00
TRACK 07 AUDIO
TITLE “Wasted Sunsets”
PERFORMER “Deep Purple”
INDEX 00 30:32:13
INDEX 01 30:34:13
TRACK 08 AUDIO
TITLE “Hungry Daze”
PERFORMER “Deep Purple”
INDEX 00 34:29:58
INDEX 01 34:31:58
TRACK 09 AUDIO
TITLE “Not Responsible”
PERFORMER “Deep Purple”
INDEX 00 39:26:48
INDEX 01 39:28:48


Leave a Reply

Your email address will not be published. Required fields are marked *

This site uses Akismet to reduce spam. Learn how your comment data is processed.