Deep Purple – Perfect Strangers (Remastered)




No Cover available

Artist: Deep Purple
Year: 1984/1999
Genre: Rock
Notes: Discogs
Add. Notes: Remastered
Watch Songs on: YouTube
Cover incl.: Yes
Encoder: FLAC
Bitrate: ~1000 kBit/s (44.1 kHz/16 Bit/s)
Log & Cue incl.: Yes/Yes
Size: 396,93 MB
Password: “slam” (without ” “)


All Downloads/Hosters are compatible

Download 1
KatFile.com
Turbobit.net
FileFactory.com
Rapidgator.net
Download 2
KatFile.com
Turbobit.net
FileFactory.com
Rapidgator.net

Tracklist:

1 - Knocking At Your Back Door - 7:04
2 - Under The Gun - 4:38
3 - Nobodys Home - 3:59
4 - Mean Streak - 4:21
5 - Perfect Strangers - 5:28
6 - A Gypsys Kiss - 5:12
7 - Wasted Sunsets - 3:55
8 - Hungry Daze - 4:58
9 - Not Responsible - 4:47
Bonus Track
10 - Son Of Alerik - 10:07

EAC-Log, CUE-Sheed & NFO:

Click to open spoiler
Exact Audio Copy V1.0 beta 3 from 29. August 2011

EAC extraction logfile from 25. July 2013, 8:39

Deep Purple / Perfect Strangers

Used drive : ATAPI iHAS124 B Adapter: 2 ID: 0

Read mode : Secure
Utilize accurate stream : Yes
Defeat audio cache : Yes
Make use of C2 pointers : No

Read offset correction : 6
Overread into Lead-In and Lead-Out : No
Fill up missing offset samples with silence : Yes
Delete leading and trailing silent blocks : No
Null samples used in CRC calculations : Yes
Used interface : Native Win32 interface for Win NT & 2000

Used output format : User Defined Encoder
Selected bitrate : 1024 kBit/s
Quality : High
Add ID3 tag : No
Command line compressor : C:\Program Files (x86)\Exact Audio Copy\FLAC\FLAC.EXE
Additional command line options : -8 -V -T “ARTIST=%artist%” -T “TITLE=%title%” -T “ALBUM=%albumtitle%” -T “DATE=%year%” -T “TRACKNUMBER=%tracknr%” -T “GENRE=%genre%” -T “PERFORMER=%albuminterpret%” -T “COMPOSER=%composer%” %haslyrics%–tag-from-file=LYRICS=”%lyricsfile%”%haslyrics% -T “ALBUMARTIST=%albumartist%” -T “DISCNUMBER=%cdnumber%” -T “TOTALDISCS=%totalcds%” -T “TOTALTRACKS=%numtracks%” -T “COMMENT=%comment%” %source% -o %dest%

TOC of the extracted CD

Track | Start | Length | Start sector | End sector
———————————————————
1 | 0:00.00 | 7:09.08 | 0 | 32182
2 | 7:09.08 | 4:40.55 | 32183 | 53237
3 | 11:49.63 | 4:01.67 | 53238 | 71379
4 | 15:51.55 | 4:24.65 | 71380 | 91244
5 | 20:16.45 | 5:31.20 | 91245 | 116089
6 | 25:47.65 | 5:14.15 | 116090 | 139654
7 | 31:02.05 | 3:58.15 | 139655 | 157519
8 | 35:00.20 | 5:01.35 | 157520 | 180129
9 | 40:01.55 | 4:52.40 | 180130 | 202069
10 | 44:54.20 | 10:02.05 | 202070 | 247224

Range status and errors

Selected range

Filename G:\CD\Deep Purple – Perfect Strangers.wav

Peak level 100.0 %
Extraction speed 5.8 X
Range quality 100.0 %
Test CRC 2C42E8A0
Copy CRC 2C42E8A0
Copy OK

No errors occurred

AccurateRip summary

Track 1 accurately ripped (confidence 52) [CAA83F7E] (AR v2)
Track 2 accurately ripped (confidence 53) [1EBE7107] (AR v2)
Track 3 accurately ripped (confidence 51) [A5BF964B] (AR v2)
Track 4 accurately ripped (confidence 51) [8145FFCD] (AR v2)
Track 5 accurately ripped (confidence 53) [2FDD904D] (AR v2)
Track 6 accurately ripped (confidence 52) [D1FC0857] (AR v2)
Track 7 accurately ripped (confidence 51) [EBFB05A5] (AR v2)
Track 8 accurately ripped (confidence 51) [09AABFC0] (AR v2)
Track 9 accurately ripped (confidence 51) [9605E440] (AR v2)
Track 10 accurately ripped (confidence 51) [D443F696] (AR v2)

All tracks accurately ripped

End of status report

==== Log checksum B57DA66C663C0C621AE16D0DFE7A78CD0D2AE7205EA36986DE3213F7C71BD046 ====

REM GENRE “Hard Rock”
REM DATE 1984
REM DISCID 7B0CE00A
REM COMMENT “ExactAudioCopy v1.0b3”
PERFORMER “Deep Purple”
TITLE “Perfect Strangers (1999, 546045-2)”
FILE “Deep Purple – Perfect Strangers.flac” WAVE
TRACK 01 AUDIO
TITLE “Knocking At Your Back Door”
PERFORMER “Deep Purple”
INDEX 01 00:00:00
TRACK 02 AUDIO
TITLE “Under The Gun”
PERFORMER “Deep Purple”
INDEX 00 07:05:15
INDEX 01 07:09:08
TRACK 03 AUDIO
TITLE “Nobody’s Home”
PERFORMER “Deep Purple”
INDEX 00 11:47:70
INDEX 01 11:49:63
TRACK 04 AUDIO
TITLE “Mean Streak”
PERFORMER “Deep Purple”
INDEX 00 15:49:65
INDEX 01 15:51:55
TRACK 05 AUDIO
TITLE “Perfect Strangers”
PERFORMER “Deep Purple”
INDEX 00 20:13:62
INDEX 01 20:16:45
TRACK 06 AUDIO
TITLE “A Gypsy’s Kiss”
PERFORMER “Deep Purple”
INDEX 00 25:45:02
INDEX 01 25:47:65
TRACK 07 AUDIO
TITLE “Wasted Sunsets”
PERFORMER “Deep Purple”
INDEX 00 31:00:52
INDEX 01 31:02:05
TRACK 08 AUDIO
TITLE “Hungry Daze”
PERFORMER “Deep Purple”
INDEX 00 34:58:02
INDEX 01 35:00:20
TRACK 09 AUDIO
TITLE “Not Responsible”
PERFORMER “Deep Purple”
INDEX 00 39:58:72
INDEX 01 40:01:55
TRACK 10 AUDIO
TITLE “Son Of Alerik (bonus track)”
PERFORMER “Deep Purple”
INDEX 00 44:49:37
INDEX 01 44:54:20


Leave a Reply

Your email address will not be published. Required fields are marked *

This site uses Akismet to reduce spam. Learn how your comment data is processed.