Deep Purple – Perfect Strangers Live




No Cover available

Artist: Deep Purple
Year: 2013
Genre: Rock
Notes: Discogs
Add. Notes:
Watch Songs on: YouTube
Cover incl.: Yes
Encoder: FLAC
Bitrate: ~1000 kBit/s (44.1 kHz/16 Bit/s)
Log & Cue incl.: Yes/Yes
Size: 833 MB
Password: “slam” (without ” “)


All Downloads/Hosters are compatible

Download 1
KatFile.com
Turbobit.net
Rapidgator.net
FileFactory.com
Download 2
KatFile.com
Turbobit.net
Rapidgator.net
FileFactory.com

Tracklist:

CD 1
1 Highway Star 6:33
2 Nobody's Home 4:23
3 Strange Kind Of Woman 8:17
4 A Gypsy's Kiss 5:57
5 Perfect Strangers 6:09
6 Under The Gun 5:57
7 Knocking At Your Back Door 8:12
8 Lazy 7:45

CD 2
1 Child In Time 12:56
2 Difficult To Cure 4:30
3 Keyboard Solo 6:01
4 Space Truckin' 15:05
5 Black Night 4:22
6 Speed King 7:10

EAC-Log, CUE-Sheed & NFO:

Click to open spoiler
Exact Audio Copy V1.0 beta 3 from 29. August 2011

EAC extraction logfile from 11. April 2014, 19:37

Deep Purple / Perfect Strangers Live CD1

Used drive : ATAPI iHAS124 B Adapter: 1 ID: 0

Read mode : Secure
Utilize accurate stream : Yes
Defeat audio cache : Yes
Make use of C2 pointers : No

Read offset correction : 6
Overread into Lead-In and Lead-Out : No
Fill up missing offset samples with silence : Yes
Delete leading and trailing silent blocks : No
Null samples used in CRC calculations : Yes
Used interface : Installed external ASPI interface

Used output format : User Defined Encoder
Selected bitrate : 128 kBit/s
Quality : High
Add ID3 tag : Yes
Command line compressor : C:\Program Files (x86)\Exact Audio Copy\Flac\flac.exe
Additional command line options : -V -8 %source%

TOC of the extracted CD

Track | Start | Length | Start sector | End sector
———————————————————
1 | 0:00.00 | 6:33.22 | 0 | 29496
2 | 6:33.22 | 4:23.53 | 29497 | 49274
3 | 10:57.00 | 8:17.11 | 49275 | 86560
4 | 19:14.11 | 5:57.32 | 86561 | 113367
5 | 25:11.43 | 6:09.35 | 113368 | 141077
6 | 31:21.03 | 5:57.63 | 141078 | 167915
7 | 37:18.66 | 8:12.54 | 167916 | 204869
8 | 45:31.45 | 7:45.09 | 204870 | 239753

Range status and errors

Selected range

Filename G:\CD\Deep Purple – Perfect Strangers Live CD1.wav

Peak level 99.5 %
Extraction speed 8.5 X
Range quality 100.0 %
Test CRC 0E582F3C
Copy CRC 0E582F3C
Copy OK

No errors occurred

AccurateRip summary

Track 1 accurately ripped (confidence 28) [8BA07BC1] (AR v2)
Track 2 accurately ripped (confidence 28) [8B44AF9C] (AR v2)
Track 3 accurately ripped (confidence 28) [EEE3C679] (AR v2)
Track 4 accurately ripped (confidence 28) [34F36DF4] (AR v2)
Track 5 accurately ripped (confidence 28) [0E0B1618] (AR v2)
Track 6 accurately ripped (confidence 28) [D22A2BBE] (AR v2)
Track 7 accurately ripped (confidence 28) [790AD806] (AR v2)
Track 8 accurately ripped (confidence 28) [1A5B22B0] (AR v2)

All tracks accurately ripped

End of status report

—- CUETools DB Plugin V2.1.3

[CTDB TOCID: .hl.iAdOa_HOKbwLsIos.hNtdnc-] found, Submit result: .hl.iAdOa_HOKbwLsIos.hNtdnc- has been confirmed
[91d17e40] (04/29) No match
[d18304ba] (23/29) Accurately ripped
[775d6a6f] (01/29) No match
[c4a4f445] (01/29) No match

==== Log checksum 8CED68AAFC5914468A7DBAD4A437E4A18CE2E5D83C8611128091977F79B9F8AE ====

Exact Audio Copy V1.0 beta 3 from 29. August 2011

EAC extraction logfile from 11. April 2014, 19:37

Deep Purple / Perfect Strangers Live CD2

Used drive : Optiarc BD RW BD-5300S Adapter: 0 ID: 0

Read mode : Secure
Utilize accurate stream : Yes
Defeat audio cache : Yes
Make use of C2 pointers : No

Read offset correction : 6
Overread into Lead-In and Lead-Out : No
Fill up missing offset samples with silence : Yes
Delete leading and trailing silent blocks : No
Null samples used in CRC calculations : Yes
Used interface : Installed external ASPI interface

Used output format : User Defined Encoder
Selected bitrate : 128 kBit/s
Quality : High
Add ID3 tag : Yes
Command line compressor : C:\Program Files (x86)\Exact Audio Copy\Flac\flac.exe
Additional command line options : -V -8 %source%

TOC of the extracted CD

Track | Start | Length | Start sector | End sector
———————————————————
1 | 0:00.00 | 12:56.24 | 0 | 58223
2 | 12:56.24 | 4:30.16 | 58224 | 78489
3 | 17:26.40 | 6:01.29 | 78490 | 105593
4 | 23:27.69 | 15:05.41 | 105594 | 173509
5 | 38:33.35 | 4:22.73 | 173510 | 193232
6 | 42:56.33 | 7:10.56 | 193233 | 225538
7 | 50:07.14 | 12:33.44 | 225539 | 282057

Range status and errors

Selected range

Filename G:\CD\Deep Purple – Perfect Strangers Live CD2.wav

Peak level 100.0 %
Extraction speed 9.0 X
Range quality 100.0 %
Test CRC C5C991FB
Copy CRC C5C991FB
Copy OK

No errors occurred

AccurateRip summary

Track 1 accurately ripped (confidence 28) [AB1B9A81] (AR v2)
Track 2 accurately ripped (confidence 28) [737A0F4B] (AR v2)
Track 3 accurately ripped (confidence 28) [1193C1DB] (AR v2)
Track 4 accurately ripped (confidence 28) [F813B60F] (AR v2)
Track 5 accurately ripped (confidence 28) [ECD0B9F4] (AR v2)
Track 6 accurately ripped (confidence 28) [9696300B] (AR v2)
Track 7 accurately ripped (confidence 28) [8310B339] (AR v2)

All tracks accurately ripped

End of status report

—- CUETools DB Plugin V2.1.3

[CTDB TOCID: 2hhemEIC6sw8iqqwwoHbMPJ1hHE-] found, Submit result: 2hhemEIC6sw8iqqwwoHbMPJ1hHE- has been confirmed
[1179b041] (27/28) Accurately ripped
[f2d8a549] (01/28) No match

==== Log checksum 61A1C5F9AAFAB722A728C62DE09C3705A2E40F309302DBE405FF1C6E4386BBCE ====

REM GENRE “Hard Rock”
REM DATE 1984
REM DISCID 690C7C08
REM COMMENT “ExactAudioCopy v1.0b3”
CATALOG 5034504907898
PERFORMER “Deep Purple”
TITLE “Perfect Strangers Live CD1 (2013, 2CD+DVD, EAGDV026)”
FILE “Deep Purple – Perfect Strangers Live CD1.flac” WAVE
TRACK 01 AUDIO
TITLE “Highway Star”
PERFORMER “Deep Purple”
ISRC GBCBR1300170
INDEX 01 00:00:00
TRACK 02 AUDIO
TITLE “Nobody’s Home”
PERFORMER “Deep Purple”
ISRC GBCBR1300171
INDEX 01 06:33:22
TRACK 03 AUDIO
TITLE “Strange Kind Of Woman”
PERFORMER “Deep Purple”
ISRC GBCBR1300172
INDEX 01 10:57:00
TRACK 04 AUDIO
TITLE “A Gypsy’s Kiss”
PERFORMER “Deep Purple”
ISRC GBCBR1300173
INDEX 01 19:14:11
TRACK 05 AUDIO
TITLE “Perfect Strangers”
PERFORMER “Deep Purple”
ISRC GBCBR1300174
INDEX 01 25:11:43
TRACK 06 AUDIO
TITLE “Under The Gun”
PERFORMER “Deep Purple”
ISRC GBCBR1300175
INDEX 01 31:21:03
TRACK 07 AUDIO
TITLE “Knocking At Your Back Door”
PERFORMER “Deep Purple”
ISRC GBCBR1300176
INDEX 01 37:18:66
TRACK 08 AUDIO
TITLE “Lazy”
PERFORMER “Deep Purple”
ISRC GBCBR1300177
INDEX 01 45:31:45

REM GENRE “Hard Rock”
REM DATE 1984
REM DISCID 600EB007
REM COMMENT “ExactAudioCopy v1.0b3”
CATALOG 5034504907898
PERFORMER “Deep Purple”
TITLE “Perfect Strangers Live CD2 (2013, 2CD+DVD, EAGDV026)”
FILE “Deep Purple – Perfect Strangers Live CD2.flac” WAVE
TRACK 01 AUDIO
TITLE “Child In Time”
PERFORMER “Deep Purple”
ISRC GBCBR1300178
INDEX 01 00:00:00
TRACK 02 AUDIO
TITLE “Difficult To Cure”
PERFORMER “Deep Purple”
ISRC GBCBR1300179
INDEX 01 12:56:24
TRACK 03 AUDIO
TITLE “Keyboard Solo”
PERFORMER “Deep Purple”
ISRC GBCBR1300180
INDEX 01 17:26:40
TRACK 04 AUDIO
TITLE “Space Truckin'”
PERFORMER “Deep Purple”
ISRC GBCBR1300181
INDEX 01 23:27:69
TRACK 05 AUDIO
TITLE “Black Night”
PERFORMER “Deep Purple”
ISRC GBCBR1300182
INDEX 01 38:33:35
TRACK 06 AUDIO
TITLE “Speed King”
PERFORMER “Deep Purple”
ISRC GBCBR1300183
INDEX 01 42:56:33
TRACK 07 AUDIO
TITLE “Smoke On The Water”
PERFORMER “Deep Purple”
ISRC GBCBR1300184
INDEX 01 50:07:14


Leave a Reply

Your email address will not be published. Required fields are marked *

Enter the text from the image below
 

This site uses Akismet to reduce spam. Learn how your comment data is processed.