Deep Purple – On The Wings Of A Russian Foxbat • Live In California Long Beach Arena 1976




[Total: 0    Average: 0/5]

Artist: Deep Purple
Year: 1995
Genre: Rock
Notes: Discogs
Add. Notes:
Cover incl.: Yes
Encoder: FLAC
Bitrate: ~1000 kBit/s (44.1 kHz/16 Bit/s)
Log & Cue incl.: Yes/Yes
Size: 887,9 MB
Password: “slam” (without ” “)


All Downloads/Hosters are compatible

Download 1
KatFile.com
Turbobit.net
FileFactory.com
Rapidgator.net
Download 2
KatFile.com
Turbobit.net
FileFactory.com
Rapidgator.net

Tracklist:

1-1 Burn 8:15
1-2 Lady Luck 3:06
1-3 Getting Tighter 13:54
1-4 Love Child 5:35
1-5 Smoke On The Water (Inc Georgia On My Mind) 9:15
1-6 Lazy 17:03
1-7 The Grind 5:51

2-1 This Time Around 7:16
2-2 Tommy Bolin Solo 10:30
2-3 Stormbringer 9:50
2-4 Highway Star (Inc Not Fade Away) 8:18
2-5 Smoke On The Water (Inc Georgia On My Mind) (Vsn 
2) 9:30
2-6 Going Down 7:25
2-7 Highway Star (Vsn 2) 6:21

EAC-Log, CUE-Sheed & NFO:

Click to open spoiler
Exact Audio Copy V1.0 beta 3 from 29. August 2011

EAC extraction logfile from 29. June 2014, 21:29

Deep Purple / Live In California Long Beach Arena 1976 CD1

Used drive : ATAPI iHAS124 B Adapter: 1 ID: 0

Read mode : Secure
Utilize accurate stream : Yes
Defeat audio cache : Yes
Make use of C2 pointers : No

Read offset correction : 6
Overread into Lead-In and Lead-Out : No
Fill up missing offset samples with silence : Yes
Delete leading and trailing silent blocks : No
Null samples used in CRC calculations : Yes
Used interface : Installed external ASPI interface

Used output format : User Defined Encoder
Selected bitrate : 128 kBit/s
Quality : High
Add ID3 tag : Yes
Command line compressor : C:\Program Files (x86)\Exact Audio Copy\Flac\flac.exe
Additional command line options : -V -8 -T “Date=%year%” -T “Genre=%genre%” %source%

TOC of the extracted CD

Track | Start | Length | Start sector | End sector
———————————————————
1 | 0:00.32 | 8:15.30 | 32 | 37186
2 | 8:15.62 | 3:06.25 | 37187 | 51161
3 | 11:22.12 | 13:54.33 | 51162 | 113744
4 | 25:16.45 | 5:35.25 | 113745 | 138894
5 | 30:51.70 | 9:15.37 | 138895 | 180556
6 | 40:07.32 | 17:03.38 | 180557 | 257319
7 | 57:10.70 | 5:51.37 | 257320 | 283681

Range status and errors

Selected range

Filename G:\CD\Deep Purple – Live In California 1976 CD1.wav

Peak level 100.0 %
Extraction speed 6.0 X
Range quality 99.9 %
Test CRC 73306BD0
Copy CRC 73306BD0
Copy OK

No errors occurred

AccurateRip summary

Track 1 cannot be verified as accurate (confidence 26) [186D94B6], AccurateRip returned [9FC38C61] (AR v2)
Track 2 cannot be verified as accurate (confidence 27) [2A00D173], AccurateRip returned [CA0AD453] (AR v2)
Track 3 cannot be verified as accurate (confidence 26) [6D45626E], AccurateRip returned [341D8FDF] (AR v2)
Track 4 cannot be verified as accurate (confidence 25) [8DABDC6D], AccurateRip returned [5AF335A0] (AR v2)
Track 5 cannot be verified as accurate (confidence 25) [808C99D4], AccurateRip returned [4D3881A7] (AR v2)
Track 6 cannot be verified as accurate (confidence 24) [21AC4DA3], AccurateRip returned [EFFEF8F2] (AR v2)
Track 7 cannot be verified as accurate (confidence 26) [2DE6AF65], AccurateRip returned [5B29E82D] (AR v2)

No tracks could be verified as accurate
You may have a different pressing from the one(s) in the database

End of status report

—- CUETools DB Plugin V2.1.3

[CTDB TOCID: huWQ9KV_RqZBMqfulzWLs9jr1fE-] found, Submit result: discs with pregaps not supported in this protocol version
[1e8b3fb4] (42/42) Differs in 0 samples @
You can use CUETools to repair this rip.

==== Log checksum B657C2BCA0355D1DF63A86A1764543EC3742E29187D71CB1EF73C8648867B83B ====

Exact Audio Copy V1.0 beta 3 from 29. August 2011

EAC extraction logfile from 29. June 2014, 22:09

Deep Purple / Live In California Long Beach Arena 1976 CD2

Used drive : ATAPI iHAS124 B Adapter: 1 ID: 0

Read mode : Secure
Utilize accurate stream : Yes
Defeat audio cache : Yes
Make use of C2 pointers : No

Read offset correction : 6
Overread into Lead-In and Lead-Out : No
Fill up missing offset samples with silence : Yes
Delete leading and trailing silent blocks : No
Null samples used in CRC calculations : Yes
Used interface : Installed external ASPI interface

Used output format : User Defined Encoder
Selected bitrate : 128 kBit/s
Quality : High
Add ID3 tag : Yes
Command line compressor : C:\Program Files (x86)\Exact Audio Copy\Flac\flac.exe
Additional command line options : -V -8 -T “Date=%year%” -T “Genre=%genre%” %source%

TOC of the extracted CD

Track | Start | Length | Start sector | End sector
———————————————————
1 | 0:00.32 | 7:16.00 | 32 | 32731
2 | 7:16.32 | 10:30.13 | 32732 | 79994
3 | 17:46.45 | 9:50.37 | 79995 | 124281
4 | 27:37.07 | 8:18.55 | 124282 | 161686
5 | 35:55.62 | 9:30.70 | 161687 | 204506
6 | 45:26.57 | 7:25.00 | 204507 | 237881
7 | 52:51.57 | 6:21.50 | 237882 | 266506

Range status and errors

Selected range

Filename G:\CD\Deep Purple – Live In California 1976 CD2.wav

Peak level 100.0 %
Extraction speed 5.9 X
Range quality 99.9 %
Test CRC DD83850E
Copy CRC DD83850E
Copy OK

No errors occurred

AccurateRip summary

Track 1 cannot be verified as accurate (confidence 19) [607D044D], AccurateRip returned [AEE18892] (AR v2)
Track 2 cannot be verified as accurate (confidence 18) [C2AA2690], AccurateRip returned [8B669322] (AR v2)
Track 3 cannot be verified as accurate (confidence 18) [7F75BF1A], AccurateRip returned [0B5CFDDA] (AR v2)
Track 4 cannot be verified as accurate (confidence 18) [F7C4516E], AccurateRip returned [402238C0] (AR v2)
Track 5 cannot be verified as accurate (confidence 17) [61F18EEE], AccurateRip returned [C4E79D63] (AR v2)
Track 6 cannot be verified as accurate (confidence 18) [678423AE], AccurateRip returned [8D74175E] (AR v2)
Track 7 cannot be verified as accurate (confidence 18) [8DBB9675], AccurateRip returned [EE559AEA] (AR v2)

No tracks could be verified as accurate
You may have a different pressing from the one(s) in the database

End of status report

—- CUETools DB Plugin V2.1.3

[CTDB TOCID: bnQcLo06GBIaPutlatrH4RpawGQ-] found, Submit result: discs with pregaps not supported in this protocol version
[8b82d790] (36/36) Differs in 0 samples @
You can use CUETools to repair this rip.

==== Log checksum 52EA3B2624D0A8DE369B9F120C27B6213F02B682C3FB26777CA91CD0A6EC2B63 ====

REM GENRE “Hard Rock”
REM DATE 1995
REM DISCID 630EC607
REM COMMENT “ExactAudioCopy v1.0b3”
PERFORMER “Deep Purple”
TITLE “Live In California Long Beach Arena 1976 CD1 (1995, 2CD, DPVSOP CD217)”
FILE “Deep Purple – Live In California 1976 CD1.flac” WAVE
TRACK 01 AUDIO
TITLE “Burn”
PERFORMER “Deep Purple”
INDEX 00 00:00:00
INDEX 01 00:00:32
TRACK 02 AUDIO
TITLE “Lady Luck”
PERFORMER “Deep Purple”
INDEX 01 08:15:62
TRACK 03 AUDIO
TITLE “Gettin’ Tighter”
PERFORMER “Deep Purple”
INDEX 01 11:22:12
TRACK 04 AUDIO
TITLE “Love Child”
PERFORMER “Deep Purple”
INDEX 01 25:16:45
TRACK 05 AUDIO
TITLE “Smoke On The Water (Including ”Georgia On My Mind”)”
PERFORMER “Deep Purple”
INDEX 01 30:51:70
TRACK 06 AUDIO
TITLE “Lazy”
PERFORMER “Deep Purple”
INDEX 01 40:07:32
TRACK 07 AUDIO
TITLE “The Grind”
PERFORMER “Deep Purple”
INDEX 01 57:10:70

REM GENRE “Hard Rock”
REM DATE 2005
REM DISCID 650DE107
REM COMMENT “ExactAudioCopy v1.0b3”
PERFORMER “Deep Purple”
TITLE “Live In California Long Beach Arena 1976 CD2 (1995, 2CD, DPVSOP CD217)”
FILE “Deep Purple – Live In California 1976 CD2.flac” WAVE
TRACK 01 AUDIO
TITLE “This Time Around”
PERFORMER “Deep Purple”
INDEX 00 00:00:00
INDEX 01 00:00:32
TRACK 02 AUDIO
TITLE “Tommy Bolin (Solo)”
PERFORMER “Deep Purple”
INDEX 01 07:16:32
TRACK 03 AUDIO
TITLE “Stormbringer”
PERFORMER “Deep Purple”
INDEX 01 17:46:45
TRACK 04 AUDIO
TITLE “Highway Star (Including ”Not Fade Away”) (from Long Beach Encore)”
PERFORMER “Deep Purple”
INDEX 01 27:37:07
TRACK 05 AUDIO
TITLE “Smoke On The Water (Including ”Georgia On My Mind”) (Recorded Springfield, …”
PERFORMER “Deep Purple”
INDEX 00 35:54:62
INDEX 01 35:55:62
TRACK 06 AUDIO
TITLE “Going Down (from Long Beach Encore)”
PERFORMER “Deep Purple”
INDEX 01 45:26:57
TRACK 07 AUDIO
TITLE “Highway Star (Including ”Not Fade Away”) (Recorded Springfield, MA – 01.26….”
PERFORMER “Deep Purple”
INDEX 01 52:51:57


Spread the Download

Leave a Reply

Your email address will not be published. Required fields are marked *

Enter the text from the image below
 

This site uses Akismet to reduce spam. Learn how your comment data is processed.