Deep Purple – Nobody’s Perfect




Artist: Deep Purple
Year: 1988
Genre: Rock
Notes: Discogs
Add. Notes:
Cover incl.: Yes
Encoder: FLAC
Bitrate: ~800 kBit/s (44.1 kHz/16 Bit/s)
Log & Cue incl.: Yes
Size: 467 MB
Password: “slam” (without ” “)


All Downloads/Hosters are compatible

Download 1
KatFile.com
Turbobit.net
FileFactory.com
Rapidgator.net
Download 2
KatFile.com
Turbobit.net
FileFactory.com
Rapidgator.net

Tracklist:

1 - Highway Star - 6:10
2 - Strange Kind Of Woman - 7:34
3 - Perfect Strangers - 6:25
4 - Hard Lovin' Woman - 5:03
5 - Knocking At Your Back Door - 
11:26
6 - Child In Time - 10:35
7 - Lazy - 5:10
8 - Black Night - 6:06
9 - Woman From Tokyo - 4:00
10 - Smoke On The Water - 7:46
11 - Hush - 3:50

EAC-Log, CUE-Sheed & NFO:

Click to open spoiler
Exact Audio Copy V1.0 beta 3 from 29. August 2011

EAC extraction logfile from 30. July 2013, 22:59

Deep Purple / Nobody’s Perfect

Used drive : ATAPI iHAS124 B Adapter: 2 ID: 0

Read mode : Secure
Utilize accurate stream : Yes
Defeat audio cache : Yes
Make use of C2 pointers : No

Read offset correction : 6
Overread into Lead-In and Lead-Out : No
Fill up missing offset samples with silence : Yes
Delete leading and trailing silent blocks : No
Null samples used in CRC calculations : Yes
Used interface : Native Win32 interface for Win NT & 2000

Used output format : User Defined Encoder
Selected bitrate : 1024 kBit/s
Quality : High
Add ID3 tag : No
Command line compressor : C:\Program Files (x86)\Exact Audio Copy\FLAC\FLAC.EXE
Additional command line options : -8 -V -T “ARTIST=%artist%” -T “TITLE=%title%” -T “ALBUM=%albumtitle%” -T “DATE=%year%” -T “TRACKNUMBER=%tracknr%” -T “GENRE=%genre%” -T “PERFORMER=%albuminterpret%” -T “COMPOSER=%composer%” %haslyrics%–tag-from-file=LYRICS=”%lyricsfile%”%haslyrics% -T “ALBUMARTIST=%albumartist%” -T “DISCNUMBER=%cdnumber%” -T “TOTALDISCS=%totalcds%” -T “TOTALTRACKS=%numtracks%” -T “COMMENT=%comment%” %source% -o %dest%

TOC of the extracted CD

Track | Start | Length | Start sector | End sector
———————————————————
1 | 0:00.32 | 6:10.20 | 32 | 27801
2 | 6:10.52 | 7:35.35 | 27802 | 61961
3 | 13:46.12 | 6:25.58 | 61962 | 90894
4 | 20:11.70 | 5:04.55 | 90895 | 113749
5 | 25:16.50 | 11:24.35 | 113750 | 165084
6 | 36:41.10 | 10:36.65 | 165085 | 212849
7 | 47:18.00 | 5:15.15 | 212850 | 236489
8 | 52:33.15 | 6:07.35 | 236490 | 264049
9 | 58:40.50 | 4:00.72 | 264050 | 282121
10 | 62:41.47 | 7:46.53 | 282122 | 317124
11 | 70:28.25 | 3:32.37 | 317125 | 333061

Range status and errors

Selected range

Filename G:\CD\Deep Purple – Nobody’s Perfect.wav

Peak level 100.0 %
Extraction speed 6.3 X
Range quality 99.9 %
Test CRC A25301F0
Copy CRC A25301F0
Copy OK

No errors occurred

AccurateRip summary

Track 1 not present in database
Track 2 not present in database
Track 3 not present in database
Track 4 not present in database
Track 5 not present in database
Track 6 not present in database
Track 7 not present in database
Track 8 not present in database
Track 9 not present in database
Track 10 not present in database
Track 11 not present in database

None of the tracks are present in the AccurateRip database

End of status report

==== Log checksum 95539229A425D0C24B8D215800DCC4C4DC8E2D44FCCC11F3B3CF2D47A8E6A281 ====

REM GENRE “Hard Rock”
REM DATE 1988
REM DISCID 8111580B
REM COMMENT “ExactAudioCopy v1.0b3”
PERFORMER “Deep Purple”
TITLE “Nobody’s Perfect (1988, 835897-2)”
FILE “Deep Purple – Nobody’s Perfect.flac” WAVE
TRACK 01 AUDIO
TITLE “Highway Star”
PERFORMER “Deep Purple”
INDEX 00 00:00:00
INDEX 01 00:00:32
TRACK 02 AUDIO
TITLE “Strange Kind Of Woman”
PERFORMER “Deep Purple”
INDEX 01 06:10:52
TRACK 03 AUDIO
TITLE “Perfect Strangers”
PERFORMER “Deep Purple”
INDEX 00 13:45:02
INDEX 01 13:46:12
TRACK 04 AUDIO
TITLE “Hard Lovin’ Woman”
PERFORMER “Deep Purple”
INDEX 00 20:10:72
INDEX 01 20:11:70
TRACK 05 AUDIO
TITLE “Knocking At Your Back Door”
PERFORMER “Deep Purple”
INDEX 00 25:16:35
INDEX 01 25:16:50
TRACK 06 AUDIO
TITLE “Child In Time”
PERFORMER “Deep Purple”
INDEX 01 36:41:10
TRACK 07 AUDIO
TITLE “Lazy”
PERFORMER “Deep Purple”
INDEX 00 47:17:52
INDEX 01 47:18:00
TRACK 08 AUDIO
TITLE “Black Night”
PERFORMER “Deep Purple”
INDEX 00 52:32:57
INDEX 01 52:33:15
TRACK 09 AUDIO
TITLE “Woman From Tokyo”
PERFORMER “Deep Purple”
INDEX 01 58:40:50
TRACK 10 AUDIO
TITLE “Smoke On The Water”
PERFORMER “Deep Purple”
INDEX 00 62:40:70
INDEX 01 62:41:47
TRACK 11 AUDIO
TITLE “Hush”
PERFORMER “Deep Purple”
INDEX 00 70:25:60
INDEX 01 70:28:25


Leave a Reply

Your email address will not be published. Required fields are marked *

This site uses Akismet to reduce spam. Learn how your comment data is processed.