Deep Purple – Nobody’s Perfect (Limited Remastered Japanese Edition)




No Cover available

Artist: Deep Purple
Year: 1988/2009
Genre: Rock
Notes: Discogs
Add. Notes: Limited Remastered Japanese Edition
Watch Songs on: YouTube
Cover incl.: Yes
Encoder: FLAC
Bitrate: ~1000 kBit/s (44.1 kHz/16 Bit/s)
Log & Cue incl.: Yes
Size: 710,7 MB
Password: “slam” (without ” “)


All Downloads/Hosters are compatible

Download 1
KatFile.com
Turbobit.net
FileFactory.com
Rapidgator.net
Download 2
KatFile.com
Turbobit.net
FileFactory.com
Rapidgator.net

Tracklist:

1-1 - Highway Star - 6:10
1-2 - Strange Kind Of Woman - 7:54
1-3 - Dead Or Alive - 7:05
1-4 - Perfect Strangers - 6:24
1-5 - Hard Lovin Woman - 5:05
1-6 - Bad Attitude - 5:50
1-7 - Knocking At Your Back Door - 11:24
2-1 - Child In Time - 6:10
2-2 - Lazy - 5:10
2-3 - Space Trucking - 6:02
2-4 - Black Night - 6:06
2-5 - Woman From Tokyo - 5:59
2-6 - Smoke On The Water - 7:45
2-7 - Hush - 5:52

EAC-Log, CUE-Sheed & NFO:

Click to open spoiler
Exact Audio Copy V1.0 beta 3 from 29. August 2011

EAC extraction logfile from 12. September 2013, 22:10

Deep Purple / Nobody’s Perfect CD1

Used drive : ATAPI iHAS124 B Adapter: 2 ID: 0

Read mode : Secure
Utilize accurate stream : Yes
Defeat audio cache : Yes
Make use of C2 pointers : No

Read offset correction : 6
Overread into Lead-In and Lead-Out : No
Fill up missing offset samples with silence : Yes
Delete leading and trailing silent blocks : No
Null samples used in CRC calculations : Yes
Used interface : Native Win32 interface for Win NT & 2000

Used output format : User Defined Encoder
Selected bitrate : 1024 kBit/s
Quality : High
Add ID3 tag : No
Command line compressor : C:\Program Files (x86)\Exact Audio Copy\FLAC\FLAC.EXE
Additional command line options : -8 -V -T “ARTIST=%artist%” -T “TITLE=%title%” -T “ALBUM=%albumtitle%” -T “DATE=%year%” -T “TRACKNUMBER=%tracknr%” -T “GENRE=%genre%” -T “PERFORMER=%albuminterpret%” -T “COMPOSER=%composer%” %haslyrics%–tag-from-file=LYRICS=”%lyricsfile%”%haslyrics% -T “ALBUMARTIST=%albumartist%” -T “DISCNUMBER=%cdnumber%” -T “TOTALDISCS=%totalcds%” -T “TOTALTRACKS=%numtracks%” -T “COMMENT=%comment%” %source% -o %dest%

TOC of the extracted CD

Track | Start | Length | Start sector | End sector
———————————————————
1 | 0:00.00 | 6:10.59 | 0 | 27808
2 | 6:10.59 | 7:35.00 | 27809 | 61933
3 | 13:45.59 | 7:06.22 | 61934 | 93905
4 | 20:52.06 | 6:26.05 | 93906 | 122860
5 | 27:18.11 | 5:04.10 | 122861 | 145670
6 | 32:22.21 | 5:30.63 | 145671 | 170483
7 | 37:53.09 | 11:24.65 | 170484 | 221848

Range status and errors

Selected range

Filename G:\CD\Deep Purple – Nobody’s Perfect CD1.wav

Peak level 99.8 %
Extraction speed 5.6 X
Range quality 100.0 %
Test CRC A85359B4
Copy CRC A85359B4
Copy OK

No errors occurred

AccurateRip summary

Track 1 accurately ripped (confidence 2) [38447FFE] (AR v2)
Track 2 accurately ripped (confidence 2) [4994E33E] (AR v2)
Track 3 accurately ripped (confidence 2) [03DD5273] (AR v2)
Track 4 accurately ripped (confidence 2) [2BB1665F] (AR v2)
Track 5 accurately ripped (confidence 2) [C7F82144] (AR v2)
Track 6 accurately ripped (confidence 2) [E8A0E997] (AR v2)
Track 7 accurately ripped (confidence 2) [F3EA6813] (AR v2)

All tracks accurately ripped

End of status report

==== Log checksum 4B2BB7AC9A80233DE50D573C285990EAE4362A3EB6DB5A7EBB63D374947FF22E ====

Exact Audio Copy V1.0 beta 3 from 29. August 2011

EAC extraction logfile from 12. September 2013, 22:31

Deep Purple / Nobody’s Perfect CD2

Used drive : ATAPI iHAS124 B Adapter: 2 ID: 0

Read mode : Secure
Utilize accurate stream : Yes
Defeat audio cache : Yes
Make use of C2 pointers : No

Read offset correction : 6
Overread into Lead-In and Lead-Out : No
Fill up missing offset samples with silence : Yes
Delete leading and trailing silent blocks : No
Null samples used in CRC calculations : Yes
Used interface : Native Win32 interface for Win NT & 2000

Used output format : User Defined Encoder
Selected bitrate : 1024 kBit/s
Quality : High
Add ID3 tag : No
Command line compressor : C:\Program Files (x86)\Exact Audio Copy\FLAC\FLAC.EXE
Additional command line options : -8 -V -T “ARTIST=%artist%” -T “TITLE=%title%” -T “ALBUM=%albumtitle%” -T “DATE=%year%” -T “TRACKNUMBER=%tracknr%” -T “GENRE=%genre%” -T “PERFORMER=%albuminterpret%” -T “COMPOSER=%composer%” %haslyrics%–tag-from-file=LYRICS=”%lyricsfile%”%haslyrics% -T “ALBUMARTIST=%albumartist%” -T “DISCNUMBER=%cdnumber%” -T “TOTALDISCS=%totalcds%” -T “TOTALTRACKS=%numtracks%” -T “COMMENT=%comment%” %source% -o %dest%

TOC of the extracted CD

Track | Start | Length | Start sector | End sector
———————————————————
1 | 0:00.00 | 10:37.48 | 0 | 47822
2 | 10:37.48 | 5:10.67 | 47823 | 71139
3 | 15:48.40 | 6:03.37 | 71140 | 98401
4 | 21:52.02 | 6:06.73 | 98402 | 125924
5 | 27:59.00 | 4:01.21 | 125925 | 144020
6 | 32:00.21 | 7:46.36 | 144021 | 179006
7 | 39:46.57 | 3:33.52 | 179007 | 195033

Range status and errors

Selected range

Filename G:\CD\Deep Purple – Nobody’s Perfect CD2.wav

Peak level 99.8 %
Extraction speed 5.4 X
Range quality 100.0 %
Test CRC 98D4A756
Copy CRC 98D4A756
Copy OK

No errors occurred

AccurateRip summary

Track 1 accurately ripped (confidence 2) [7B0DF1FA] (AR v2)
Track 2 accurately ripped (confidence 2) [AE579C36] (AR v2)
Track 3 accurately ripped (confidence 2) [408DA990] (AR v2)
Track 4 accurately ripped (confidence 2) [2CF9D438] (AR v2)
Track 5 accurately ripped (confidence 2) [1BBA1DE5] (AR v2)
Track 6 accurately ripped (confidence 2) [988982B7] (AR v2)
Track 7 accurately ripped (confidence 2) [C27DF702] (AR v2)

All tracks accurately ripped

End of status report

==== Log checksum 96B0CD30A37C5EEBC4A53B5426DAA12C901F1378427B91418A851F54ECA84791 ====

REM GENRE “Hard Rock”
REM DATE 1988
REM DISCID 580B8D07
REM COMMENT “ExactAudioCopy v1.0b3”
PERFORMER “Deep Purple”
TITLE “Nobody’s Perfect CD1 (2009, 2CD, UICY 75502-3)”
FILE “Deep Purple – Nobody’s Perfect CD1.flac” WAVE
TRACK 01 AUDIO
TITLE “Highway Star”
PERFORMER “Deep Purple”
INDEX 01 00:00:00
TRACK 02 AUDIO
TITLE “Strange Kind of Woman”
PERFORMER “Deep Purple”
INDEX 01 06:10:59
TRACK 03 AUDIO
TITLE “Dead Or Alive”
PERFORMER “Deep Purple”
INDEX 01 13:45:59
TRACK 04 AUDIO
TITLE “Perfect Strangers”
PERFORMER “Deep Purple”
INDEX 01 20:52:06
TRACK 05 AUDIO
TITLE “Hard Lovin’ Woman”
PERFORMER “Deep Purple”
INDEX 01 27:18:11
TRACK 06 AUDIO
TITLE “Bad Attitude”
PERFORMER “Deep Purple”
INDEX 01 32:22:21
TRACK 07 AUDIO
TITLE “Knocking At Your Back Door”
PERFORMER “Deep Purple”
INDEX 01 37:53:09

REM GENRE “Hard Rock”
REM DATE 1988
REM DISCID 5E0A2807
REM COMMENT “ExactAudioCopy v1.0b3”
PERFORMER “Deep Purple”
TITLE “Nobody’s Perfect CD2 (2009, 2CD, UICY 75502-3)”
FILE “Deep Purple – Nobody’s Perfect CD2.flac” WAVE
TRACK 01 AUDIO
TITLE “Child In Time”
PERFORMER “Deep Purple”
INDEX 01 00:00:00
TRACK 02 AUDIO
TITLE “Lazy”
PERFORMER “Deep Purple”
INDEX 01 10:37:48
TRACK 03 AUDIO
TITLE “Space Trucking”
PERFORMER “Deep Purple”
INDEX 01 15:48:40
TRACK 04 AUDIO
TITLE “Black Night”
PERFORMER “Deep Purple”
INDEX 01 21:52:02
TRACK 05 AUDIO
TITLE “Woman From Tokyo”
PERFORMER “Deep Purple”
INDEX 01 27:59:00
TRACK 06 AUDIO
TITLE “Smoke On The Water”
PERFORMER “Deep Purple”
INDEX 01 32:00:21
TRACK 07 AUDIO
TITLE “Hush ’88”
PERFORMER “Deep Purple”
INDEX 00 39:44:50
INDEX 01 39:46:57


Leave a Reply

Your email address will not be published. Required fields are marked *

This site uses Akismet to reduce spam. Learn how your comment data is processed.