Deep Purple – New, Live And Rare (Japanese Edition)




[Total: 0    Average: 0/5]

Artist: Deep Purple
Year: 1980/1989
Genre: Rock
Notes: Discogs
Add. Notes: Japanese Edition
Cover incl.: Yes
Encoder: FLAC
Bitrate: ~800 kBit/s (44.1 kHz/16 Bit/s)
Log & Cue incl.: Yes
Size: 325,22 MB
Password: “slam” (without ” “)


All Downloads/Hosters are compatible

Download 1
Share-online.biz
KatFile.com
Rapidgator.net
Mexa.sh
Download 2
Share-online.biz
KatFile.com
Rapidgator.net
Mexa.sh

Tracklist:

1 - Hush - 4:24
2 - Painted Horse - 5:19
3 - Cry Free - 3:12
4 - Child In Time - 12:26
5 - Strange Kind Of Woman - 4:03
6 - I'm Alone - 3:04
7 - When A Blind Man Cries - 3:33
8 - Wring That Neck - 13:03

EAC-Log, CUE-Sheed & NFO:

Click to open spoiler
Exact Audio Copy V1.0 beta 4 from 7. December 2014

EAC extraction logfile from 27. June 2015, 22:54

Deep Purple / New, Live And Rare (1989, 18DN-33)

Used drive : ATAPI iHAS124 B Adapter: 1 ID: 0

Read mode : Secure
Utilize accurate stream : Yes
Defeat audio cache : Yes
Make use of C2 pointers : No

Read offset correction : 6
Overread into Lead-In and Lead-Out : No
Fill up missing offset samples with silence : Yes
Delete leading and trailing silent blocks : No
Null samples used in CRC calculations : Yes
Used interface : Installed external ASPI interface

Used output format : User Defined Encoder
Selected bitrate : 128 kBit/s
Quality : High
Add ID3 tag : Yes
Command line compressor : C:\Program Files (x86)\Exact Audio Copy\Flac\flac.exe
Additional command line options : -V -8 -T “Date=%year%” -T “Genre=%genre%” %source%

TOC of the extracted CD

Track | Start | Length | Start sector | End sector
———————————————————
1 | 0:00.00 | 4:24.63 | 0 | 19862
2 | 4:24.63 | 5:19.52 | 19863 | 43839
3 | 9:44.40 | 3:12.13 | 43840 | 58252
4 | 12:56.53 | 12:26.65 | 58253 | 114267
5 | 25:23.43 | 4:03.27 | 114268 | 132519
6 | 29:26.70 | 3:04.68 | 132520 | 146387
7 | 32:31.63 | 3:33.52 | 146388 | 162414
8 | 36:05.40 | 13:03.50 | 162415 | 221189

Range status and errors

Selected range

Filename G:\CD\Deep Purple – New, Live And Rare.wav

Peak level 96.1 %
Extraction speed 8.8 X
Range quality 100.0 %
Test CRC 5C88432A
Copy CRC 5C88432A
Copy OK

No errors occurred

AccurateRip summary

Track 1 accurately ripped (confidence 6) [59DCED34] (AR v2)
Track 2 accurately ripped (confidence 5) [74416973] (AR v2)
Track 3 accurately ripped (confidence 6) [30CCB0A5] (AR v2)
Track 4 accurately ripped (confidence 6) [1FA24F14] (AR v2)
Track 5 accurately ripped (confidence 6) [A38E0808] (AR v2)
Track 6 accurately ripped (confidence 6) [F06D3BCD] (AR v2)
Track 7 accurately ripped (confidence 6) [345F905D] (AR v2)
Track 8 accurately ripped (confidence 6) [CA1E55A0] (AR v2)

All tracks accurately ripped

End of status report

—- CUETools DB Plugin V2.1.4

[CTDB TOCID: lBoQ1VfYDt69aAjkT5CqPGeUJLM-] found
Submit result: lBoQ1VfYDt69aAjkT5CqPGeUJLM- has been confirmed
Track | CTDB Status
1 | (7/8) Accurately ripped
2 | (6/8) Accurately ripped, or (1/8) differs in 8756 samples @03:27:47-03:27:49,03:27:58-03:27:60,03:27:70-03:27:73,03:28:05-03:28:09
3 | (7/8) Accurately ripped
4 | (7/8) Accurately ripped
5 | (7/8) Accurately ripped
6 | (7/8) Accurately ripped
7 | (7/8) Accurately ripped
8 | (7/8) Accurately ripped

==== Log checksum 319CD854CC8CBF207EBE1751A5D2F313E4537BC47A7C0E57D5EA6BA8CD049FE4 ====

REM GENRE “Hard Rock”
REM DATE 1980
REM DISCID 7E0B8508
REM COMMENT “ExactAudioCopy v1.0b4”
PERFORMER “Deep Purple”
TITLE “New, Live And Rare (1989, 18DN-33)”
FILE “Deep Purple – New, Live And Rare.flac” WAVE
TRACK 01 AUDIO
TITLE “Hush”
PERFORMER “Deep Purple”
INDEX 01 00:00:00
TRACK 02 AUDIO
TITLE “Painted Horse”
PERFORMER “Deep Purple”
INDEX 00 04:21:65
INDEX 01 04:24:63
TRACK 03 AUDIO
TITLE “Cry Free”
PERFORMER “Deep Purple”
INDEX 00 09:41:18
INDEX 01 09:44:40
TRACK 04 AUDIO
TITLE “Child In Time”
PERFORMER “Deep Purple”
INDEX 00 12:52:70
INDEX 01 12:56:53
TRACK 05 AUDIO
TITLE “Strange Kind Of Woman”
PERFORMER “Deep Purple”
INDEX 00 25:20:55
INDEX 01 25:23:43
TRACK 06 AUDIO
TITLE “I’m Alone”
PERFORMER “Deep Purple”
INDEX 00 29:23:68
INDEX 01 29:26:70
TRACK 07 AUDIO
TITLE “When A Blind Man Cries”
PERFORMER “Deep Purple”
INDEX 00 32:30:25
INDEX 01 32:31:63
TRACK 08 AUDIO
TITLE “Wring That Neck”
PERFORMER “Deep Purple”
INDEX 00 36:03:15
INDEX 01 36:05:40


Spread the Download

Leave a Reply

Your email address will not be published. Required fields are marked *

Enter the text from the image below
 

This site uses Akismet to reduce spam. Learn how your comment data is processed.