Deep Purple – Made In Japan (Reissue)




[Total: 0    Average: 0/5]

Artist: Deep Purple
Year: 1972/1989
Genre: Rock
Notes: Discogs
Add. Notes: Reissue
Cover incl.: Yes
Encoder: FLAC
Bitrate: ~800 kBit/s (44.1 kHz/16 Bit/s)
Log & Cue incl.: Yes
Size: 458 MB
Password: “slam” (without ” “)


All Downloads/Hosters are compatible

Download 1
KatFile.com
Turbobit.net
FileFactory.com
Rapidgator.net
Download 2
KatFile.com
Turbobit.net
FileFactory.com
Rapidgator.net

Tracklist:

1 - Highway Star - 6:50
2 - Child In Time - 12:24
3 - Smoke On The Water - 7:31
4 - The Mule - 9:49
5 - Strange Kind Of Women - 9:35
6 - Lazy - 10:50
7 - Space Truckin' - 19:41

EAC-Log, CUE-Sheed & NFO:

Click to open spoiler
Exact Audio Copy V0.99 prebeta 5 from 4. May 2009

????? EAC ?? ??????????, ??????????? 16. ???? 2009, 11:33

Deep Purple / Made in Japan

????????: MATSHITADVD-RAM UJ-850S Adapter: 1 ID: 0

????? ?????? : ?????????????
????????????? ??????? ?????? : ??
?????????? ???? ????? : ??
????????????? ?????????? C2 : ???

????????? ???????? ??? ?????? : 102
??????????? ?????? ??????? Lead-in ? Lead-out : ???
?????????? ??????????? ??????? ??????? : ??
???????? ?????? ? ??????? ? ?????? ? ????? : ???
??? ??????????? CRC ?????????????? ??????? ?????? : ??
????????? : ?????????? Win32-????????? ??? Win NT/2000

???????? ?????? : ???????????????? ??????????
????????? ??????? : 1024 kBit/s
???????? : ???????
?????????? ID3-???? : ???
??????? ?????? : C:\Program Files\Exact Audio Copy\Flac\flac.exe
?????????????? ????????? : -8 -V -T “ARTIST=%a” -T “TITLE=%t” -T “ALBUM=%g” -T “DATE=%y” -T “TRACKNUMBER=%n” -T “TOTALTRACKS=%x” -T “GENRE=%m” -T “ALBUM ARTIST=%v” -T “ALBUMARTIST=%v” -T “COMMENT=EAC V0.99 prebeta 5, Secure Mode, AccurateRip, FLAC -8” %s

TOC ???????????? CD

???? | ????? | ???????????? | ????????? ?????? | ???????? ??????
———————————————————————
1 | 0:00.33 | 6:50.70 | 33 | 30852
2 | 6:51.28 | 12:24.22 | 30853 | 86674
3 | 19:15.50 | 7:31.58 | 86675 | 120557
4 | 26:47.33 | 9:49.32 | 120558 | 164764
5 | 36:36.65 | 9:35.43 | 164765 | 207932
6 | 46:12.33 | 10:50.67 | 207933 | 256749
7 | 57:03.25 | 19:41.28 | 256750 | 345352

?????????????? ????????? ?????????? ? ????????? ?? ???????

????????? ????????

??? ????? C:\Users\ALIK\Desktop\music\Deep Purple Made In Japan\Deep Purple – Made in Japan.wav

??????? ??????? 97.7 %
???????? ????????? 99.9 %
CRC ????? 4CD2EA37
CRC ????? 4CD2EA37
???????????… OK

?????? ?? ?????????

AccurateRip: ??????

???? 1 ?????? ?????????? (??????? 93) [83AD9A19]
???? 2 ?????? ?????????? (??????? 92) [C9300B91]
???? 3 ?????? ?????????? (??????? 93) [D05CFA25]
???? 4 ?????? ?????????? (??????? 90) [2C46F39E]
???? 5 ?????? ?????????? (??????? 91) [2FA7072B]
???? 6 ?????? ?????????? (??????? 90) [33795389]
???? 7 ?????? ?????????? (??????? 86) [5DE2086F]

??? ????? ????????? ?????

????? ??????

REM GENRE Rock
REM DATE 1972
REM DISCID 5E11FC07
REM COMMENT “ExactAudioCopy v0.99pb5”
PERFORMER “Deep Purple”
TITLE “Made in Japan (1989, CDP 7 48050 2)”
FILE “Deep Purple – Made in Japan.flac” WAVE
TRACK 01 AUDIO
TITLE “Highway Star”
PERFORMER “Deep Purple”
INDEX 00 00:00:00
INDEX 01 00:00:33
TRACK 02 AUDIO
TITLE “Child in Time”
PERFORMER “Deep Purple”
INDEX 00 06:50:03
INDEX 01 06:51:28
TRACK 03 AUDIO
TITLE “Smoke on the Water”
PERFORMER “Deep Purple”
INDEX 00 19:14:15
INDEX 01 19:15:50
TRACK 04 AUDIO
TITLE “The Mule (Drum Solo)”
PERFORMER “Deep Purple”
INDEX 00 26:45:70
INDEX 01 26:47:33
TRACK 05 AUDIO
TITLE “Strange Kind of Woman”
PERFORMER “Deep Purple”
INDEX 00 36:35:30
INDEX 01 36:36:65
TRACK 06 AUDIO
TITLE “Lazy”
PERFORMER “Deep Purple”
INDEX 00 46:12:30
INDEX 01 46:12:33
TRACK 07 AUDIO
TITLE “Space TruckinĀ“”
PERFORMER “Deep Purple”
INDEX 00 57:02:23
INDEX 01 57:03:25


Spread the Download

Leave a Reply

Your email address will not be published. Required fields are marked *

Enter the text from the image below
 

This site uses Akismet to reduce spam. Learn how your comment data is processed.