Deep Purple – Made in Japan (25th Anniversary Edition)




Artist: Deep Purple
Year: 1972/1998
Genre: Rock
Notes: Discogs
Add. Notes: 25th Anniversary Edition
Cover incl.: Yes
Encoder: FLAC
Bitrate: ~900 kBit/s (44.1 kHz/16 Bit/s)
Log & Cue incl.: Yes
Size: 935,3 MB
Password: “slam” (without ” “)


All Downloads/Hosters are compatible

Download 1
Turbobit.net
KatFile.com
Rapidgator.net
NitroFlare.com
Download 2
Turbobit.net
KatFile.com
Rapidgator.net
NitroFlare.com

Tracklist:

1-01  - Highway Star  - 6:42
1-02  - Child In Time  - 12:18
1-03  - Smoke On The Water  - 7:37
1-04  - The Mule (Drum Solo)  - 9:28
1-05  - Strange Kind Of Woman  - 9:52
1-06  - Lazy  - 10:27
1-07  - Space Truckin'  - 19:53
Bonus disc
2-01  - Black Night  - 6:17
2-02  - Speed King  - 7:25
2-03  - Lucille  - 8:03
2-04  - Highway Star  - 6:08
2-05  - Child In Time  - 10:18
2-06  - Smoke On The Water  - 5:42
2-07  - The Mule  - 5:22
2-08  - Strange Kind Of Woman  - 4:06
2-09  - Lazy  - 7:23
2-10  - Space Truckin'  - 4:34

EAC-Log, CUE-Sheed & NFO:

Click to open spoiler
Exact Audio Copy V1.0 beta 3 from 29. August 2011

EAC extraction logfile from 19. July 2013, 9:48

Deep Purple / Made in Japan 25th Anniversary CD1

Used drive : ATAPI iHAS124 B Adapter: 2 ID: 0

Read mode : Secure
Utilize accurate stream : Yes
Defeat audio cache : Yes
Make use of C2 pointers : No

Read offset correction : 6
Overread into Lead-In and Lead-Out : No
Fill up missing offset samples with silence : Yes
Delete leading and trailing silent blocks : No
Null samples used in CRC calculations : Yes
Used interface : Native Win32 interface for Win NT & 2000

Used output format : User Defined Encoder
Selected bitrate : 1024 kBit/s
Quality : High
Add ID3 tag : No
Command line compressor : C:\Program Files (x86)\Exact Audio Copy\FLAC\FLAC.EXE
Additional command line options : -8 -V -T “ARTIST=%artist%” -T “TITLE=%title%” -T “ALBUM=%albumtitle%” -T “DATE=%year%” -T “TRACKNUMBER=%tracknr%” -T “GENRE=%genre%” -T “PERFORMER=%albuminterpret%” -T “COMPOSER=%composer%” %haslyrics%–tag-from-file=LYRICS=”%lyricsfile%”%haslyrics% -T “ALBUMARTIST=%albumartist%” -T “DISCNUMBER=%cdnumber%” -T “TOTALDISCS=%totalcds%” -T “TOTALTRACKS=%numtracks%” -T “COMMENT=%comment%” %source% -o %dest%

TOC of the extracted CD

Track | Start | Length | Start sector | End sector
———————————————————
1 | 0:00.00 | 6:43.00 | 0 | 30224
2 | 6:43.00 | 12:17.52 | 30225 | 85551
3 | 19:00.52 | 7:36.48 | 85552 | 119799
4 | 26:37.25 | 9:28.30 | 119800 | 162429
5 | 36:05.55 | 9:52.25 | 162430 | 206854
6 | 45:58.05 | 10:27.20 | 206855 | 253899
7 | 56:25.25 | 19:54.27 | 253900 | 343476

Range status and errors

Selected range

Filename G:\CD\Deep Purple – Made in Japan 25th Anniversary CD1.wav

Peak level 98.6 %
Extraction speed 6.5 X
Range quality 100.0 %
Test CRC 38BF6D56
Copy CRC 38BF6D56
Copy OK

No errors occurred

AccurateRip summary

Track 1 cannot be verified as accurate (confidence 200) [CB615F45], AccurateRip returned [0A16E976] (AR v2)
Track 2 cannot be verified as accurate (confidence 200) [65E47FC6], AccurateRip returned [42ACCD22] (AR v2)
Track 3 cannot be verified as accurate (confidence 200) [CDAC4B6A], AccurateRip returned [AB5F027B] (AR v2)
Track 4 cannot be verified as accurate (confidence 200) [DD8A0364], AccurateRip returned [F8B8A74F] (AR v2)
Track 5 cannot be verified as accurate (confidence 200) [C6437512], AccurateRip returned [6ED9C7E8] (AR v2)
Track 6 cannot be verified as accurate (confidence 200) [A068E119], AccurateRip returned [BBBDF363] (AR v2)
Track 7 cannot be verified as accurate (confidence 200) [E8D7FE6A], AccurateRip returned [85965BC6] (AR v2)

No tracks could be verified as accurate
You may have a different pressing from the one(s) in the database

End of status report

==== Log checksum D233B691B980D33C81D4529B83E6826E454794B2CEA98D052067C8263642A8CF ====

Exact Audio Copy V1.0 beta 3 from 29. August 2011

EAC extraction logfile from 19. July 2013, 10:14

Deep Purple / Made in Japan 25th Anniversary CD2

Used drive : ATAPI iHAS124 B Adapter: 2 ID: 0

Read mode : Secure
Utilize accurate stream : Yes
Defeat audio cache : Yes
Make use of C2 pointers : No

Read offset correction : 6
Overread into Lead-In and Lead-Out : No
Fill up missing offset samples with silence : Yes
Delete leading and trailing silent blocks : No
Null samples used in CRC calculations : Yes
Used interface : Native Win32 interface for Win NT & 2000

Used output format : User Defined Encoder
Selected bitrate : 1024 kBit/s
Quality : High
Add ID3 tag : No
Command line compressor : C:\Program Files (x86)\Exact Audio Copy\FLAC\FLAC.EXE
Additional command line options : -8 -V -T “ARTIST=%artist%” -T “TITLE=%title%” -T “ALBUM=%albumtitle%” -T “DATE=%year%” -T “TRACKNUMBER=%tracknr%” -T “GENRE=%genre%” -T “PERFORMER=%albuminterpret%” -T “COMPOSER=%composer%” %haslyrics%–tag-from-file=LYRICS=”%lyricsfile%”%haslyrics% -T “ALBUMARTIST=%albumartist%” -T “DISCNUMBER=%cdnumber%” -T “TOTALDISCS=%totalcds%” -T “TOTALTRACKS=%numtracks%” -T “COMMENT=%comment%” %source% -o %dest%

TOC of the extracted CD

Track | Start | Length | Start sector | End sector
———————————————————
1 | 0:00.00 | 6:16.66 | 0 | 28265
2 | 6:16.66 | 7:25.20 | 28266 | 61660
3 | 13:42.11 | 8:06.12 | 61661 | 98122
4 | 21:48.23 | 6:08.73 | 98123 | 125795
5 | 27:57.21 | 10:17.44 | 125796 | 172114
6 | 38:14.65 | 5:41.64 | 172115 | 197753
7 | 43:56.54 | 5:21.58 | 197754 | 221886
8 | 49:18.37 | 3:48.65 | 221887 | 239051
9 | 53:07.27 | 7:23.43 | 239052 | 272319
10 | 60:30.70 | 4:32.21 | 272320 | 292740

Range status and errors

Selected range

Filename G:\CD\Deep Purple – Made in Japan 25th Anniversary CD2.wav

Peak level 98.8 %
Extraction speed 6.2 X
Range quality 100.0 %
Test CRC 9310D83E
Copy CRC 9310D83E
Copy OK

No errors occurred

AccurateRip summary

Track 1 cannot be verified as accurate (confidence 8) [087E5F8E], AccurateRip returned [9716CE79] (AR v2)
Track 2 cannot be verified as accurate (confidence 7) [6252AB9C], AccurateRip returned [5C487DA7] (AR v2)
Track 3 cannot be verified as accurate (confidence 8) [5BCA8081], AccurateRip returned [6F3E446B] (AR v2)
Track 4 cannot be verified as accurate (confidence 8) [DCFD7CF5], AccurateRip returned [96E99040] (AR v2)
Track 5 cannot be verified as accurate (confidence 8) [10533CD4], AccurateRip returned [83A1C36C] (AR v2)
Track 6 cannot be verified as accurate (confidence 8) [99C26168], AccurateRip returned [C36CC0B0] (AR v2)
Track 7 cannot be verified as accurate (confidence 8) [123F5660], AccurateRip returned [5EC9F4A7] (AR v2)
Track 8 cannot be verified as accurate (confidence 8) [83CE08E9], AccurateRip returned [743A7C1E] (AR v2)
Track 9 cannot be verified as accurate (confidence 8) [907FAB76], AccurateRip returned [096141E0] (AR v2)
Track 10 cannot be verified as accurate (confidence 9) [D8054BCF], AccurateRip returned [70B73DAB] (AR v2)

No tracks could be verified as accurate
You may have a different pressing from the one(s) in the database

End of status report

==== Log checksum 66D95AD69F18CD70E3F91DEAF1883B8D657330759FD63E4D2585721C5F89BC3F ====

REM GENRE “Hard Rock”
REM DATE 1972
REM DISCID 5F11E307
REM COMMENT “ExactAudioCopy v1.0b3”
PERFORMER “Deep Purple”
TITLE “Made in Japan 25th Anniversary CD1 (1998, 2CD, 724349419025)”
FILE “Deep Purple – Made in Japan 25th Anniversary CD1.flac” WAVE
TRACK 01 AUDIO
TITLE “Highway Star”
PERFORMER “Deep Purple”
INDEX 01 00:00:00
TRACK 02 AUDIO
TITLE “Child in Time”
PERFORMER “Deep Purple”
INDEX 01 06:43:00
TRACK 03 AUDIO
TITLE “Smoke on the Water”
PERFORMER “Deep Purple”
INDEX 01 19:00:52
TRACK 04 AUDIO
TITLE “The Mule (Drum Solo)”
PERFORMER “Deep Purple”
INDEX 01 26:37:25
TRACK 05 AUDIO
TITLE “Strange kind of Woman”
PERFORMER “Deep Purple”
INDEX 01 36:05:55
TRACK 06 AUDIO
TITLE “Lazy”
PERFORMER “Deep Purple”
INDEX 01 45:58:05
TRACK 07 AUDIO
TITLE “Space Truckin'”
PERFORMER “Deep Purple”
INDEX 01 56:25:25

REM GENRE “Hard Rock”
REM DATE 1998
REM DISCID 980F3F0A
REM COMMENT “ExactAudioCopy v1.0b3”
PERFORMER “Deep Purple”
TITLE “Made in Japan 25th Anniversary CD2 (1998, 2CD, 724349419025)”
FILE “Deep Purple – Made in Japan 25th Anniversary CD2.flac” WAVE
TRACK 01 AUDIO
TITLE “Black Night”
PERFORMER “Deep Purple”
INDEX 01 00:00:00
TRACK 02 AUDIO
TITLE “Speed King”
PERFORMER “Deep Purple”
INDEX 01 06:16:66
TRACK 03 AUDIO
TITLE “Lucille”
PERFORMER “Deep Purple”
INDEX 01 13:42:11
TRACK 04 AUDIO
TITLE “Highway Star (Remastered Album Version)”
PERFORMER “Deep Purple”
INDEX 01 21:48:23
TRACK 05 AUDIO
TITLE “Child in Time (Remastered Album Version)”
PERFORMER “Deep Purple”
INDEX 01 27:57:21
TRACK 06 AUDIO
TITLE “Smoke on the Water (Remastered Album Version)”
PERFORMER “Deep Purple”
INDEX 01 38:14:65
TRACK 07 AUDIO
TITLE “The Mule (Remastered Album Version)”
PERFORMER “Deep Purple”
INDEX 01 43:56:54
TRACK 08 AUDIO
TITLE “Strange Kind of Woman (Single Version)”
PERFORMER “Deep Purple”
INDEX 01 49:18:37
TRACK 09 AUDIO
TITLE “Lazy (Remastered Album Version)”
PERFORMER “Deep Purple”
INDEX 01 53:07:27
TRACK 10 AUDIO
TITLE “Space Truckin’ (Remastered Album Version)”
PERFORMER “Deep Purple”
INDEX 01 60:30:70


Leave a Reply

Your email address will not be published. Required fields are marked *

This site uses Akismet to reduce spam. Learn how your comment data is processed.