Deep Purple – Machine Head (Limited Remastered Japanese Edition)




Artist: Deep Purple
Year: 1972/2008
Genre: Rock
Notes: Discogs
Add. Notes: Limited Remastered Japanese Edition
Encoder: FLAC
Bitrate: ~800 kBit/s (44.1 kHz/16 Bit/s)
Size: 311 MB
Password: “slam” (without ” “)


http://www.share-online.biz/dl/L15ZWVPP2QR http://www.share-online.biz/dl/S8CZWVPPNSA
https://rapidgator.net/file/f8a0aaa11c83cd376a0b220b0a6abe17/DeePur-MacHea-Jap.part1.rar https://rapidgator.net/file/fcf4f39561c22f18926370b9a4fec15b/DeePur-MacHea-Jap.part2.rar
https://ayefiles.com/v8xexrs2eu9x/DeePur-MacHea-Jap.part1.rar.html https://ayefiles.com/yhe2yog4xn06/DeePur-MacHea-Jap.part2.rar.html
Onlinestatus: Turbobit.net Rapidgator.net AyeFiles.com

Tracklist:

1 - Highway Star - 6:05
2 - Maybe Im A Leo - 4:51
3 - Pictures Of Home - 5:03
4 - Never Before - 3:56
5 - Smoke On The Water - 5:40
6 - Lazy - 7:19
7 - Space Truckin - 4:31

EAC-Log, CUE-Sheed & NFO:

Click to open spoiler
Exact Audio Copy V1.0 beta 4 from 7. December 2014

EAC extraction logfile from 31. January 2015, 14:44

Deep Purple / Machine Head (2008, SHM-CD, WPCR-13112)

Used drive : ATAPI iHAS124 B Adapter: 1 ID: 0

Read mode : Secure
Utilize accurate stream : Yes
Defeat audio cache : Yes
Make use of C2 pointers : No

Read offset correction : 6
Overread into Lead-In and Lead-Out : No
Fill up missing offset samples with silence : Yes
Delete leading and trailing silent blocks : No
Null samples used in CRC calculations : Yes
Used interface : Installed external ASPI interface

Used output format : User Defined Encoder
Selected bitrate : 128 kBit/s
Quality : High
Add ID3 tag : Yes
Command line compressor : C:\Program Files (x86)\Exact Audio Copy\Flac\flac.exe
Additional command line options : -V -8 -T “Date=%year%” -T “Genre=%genre%” %source%

TOC of the extracted CD

Track | Start | Length | Start sector | End sector
———————————————————
1 | 0:00.00 | 6:07.42 | 0 | 27566
2 | 6:07.42 | 4:51.70 | 27567 | 49461
3 | 10:59.37 | 5:06.58 | 49462 | 72469
4 | 16:06.20 | 4:01.00 | 72470 | 90544
5 | 20:07.20 | 5:41.37 | 90545 | 116156
6 | 25:48.57 | 7:21.70 | 116157 | 149301
7 | 33:10.52 | 4:32.23 | 149302 | 169724

Range status and errors

Selected range

Filename G:\CD\Deep Purple – Machine Head.wav

Peak level 100.0 %
Extraction speed 5.1 X
Range quality 100.0 %
Test CRC F0C2F6E5
Copy CRC F0C2F6E5
Copy OK

No errors occurred

AccurateRip summary

Track 1 accurately ripped (confidence 17) [EE07A15B] (AR v2)
Track 2 accurately ripped (confidence 17) [DF64BB05] (AR v2)
Track 3 accurately ripped (confidence 17) [0B31389C] (AR v2)
Track 4 accurately ripped (confidence 17) [00146ADE] (AR v2)
Track 5 accurately ripped (confidence 17) [73A4828A] (AR v2)
Track 6 accurately ripped (confidence 17) [652A452F] (AR v2)
Track 7 accurately ripped (confidence 16) [23836440] (AR v2)

All tracks accurately ripped

End of status report

—- CUETools DB Plugin V2.1.4

[CTDB TOCID: xF6gJ8i0KzWrZG56xS.jcin8HyA-] found
Submit result: xF6gJ8i0KzWrZG56xS.jcin8HyA- has been confirmed
Track | CTDB Status
1 | (11/18) Accurately ripped
2 | (11/18) Accurately ripped
3 | (11/18) Accurately ripped
4 | (11/18) Accurately ripped
5 | (11/18) Accurately ripped
6 | (11/18) Accurately ripped
7 | (11/18) Accurately ripped

==== Log checksum C6A228C19AF429251969B077E73A33021653AA4AD9DF45334CD3B11DF2AEFA3E ====

REM GENRE “Hard Rock”
REM DATE 1972
REM DISCID 6408D707
REM COMMENT “ExactAudioCopy v1.0b4”
CATALOG 4943674056385
PERFORMER “Deep Purple”
TITLE “Machine Head (2008, SHM-CD, WPCR-13112)”
FILE “Deep Purple – Machine Head.flac” WAVE
TRACK 01 AUDIO
TITLE “Highway Star”
PERFORMER “Deep Purple”
ISRC USWB19901165
INDEX 01 00:00:00
TRACK 02 AUDIO
TITLE “Maybe I’m A Leo”
PERFORMER “Deep Purple”
ISRC USWB10002976
INDEX 00 06:05:52
INDEX 01 06:07:42
TRACK 03 AUDIO
TITLE “Pictures Of Home”
PERFORMER “Deep Purple”
ISRC USWB10002977
INDEX 00 10:57:02
INDEX 01 10:59:37
TRACK 04 AUDIO
TITLE “Never Before”
PERFORMER “Deep Purple”
ISRC USWB10002978
INDEX 00 16:03:15
INDEX 01 16:06:20
TRACK 05 AUDIO
TITLE “Smoke On The Water”
PERFORMER “Deep Purple”
ISRC USWB19700125
INDEX 00 20:04:52
INDEX 01 20:07:20
TRACK 06 AUDIO
TITLE “Lazy”
PERFORMER “Deep Purple”
ISRC USWB10002979
INDEX 00 25:46:02
INDEX 01 25:48:57
TRACK 07 AUDIO
TITLE “Space Truckin'”
PERFORMER “Deep Purple”
ISRC USWB19903565
INDEX 00 33:09:17
INDEX 01 33:10:52

Leave a Reply

Your email address will not be published. Required fields are marked *

This site uses Akismet to reduce spam. Learn how your comment data is processed.