Deep Purple – Machine Head (Reissue)




[Total: 0    Average: 0/5]

Artist: Deep Purple
Year: 1972/1986
Genre: Rock
Notes: Discogs
Add. Notes: Reissue
Cover incl.: Yes
Encoder: FLAC
Bitrate: ~900 kBit/s (44.1 kHz/16 Bit/s)
Log & Cue incl.: Yes
Size: 299 MB
Password: “slam” (without ” “)


All Downloads/Hosters are compatible

Download 1
KatFile.com
Turbobit.net
FileFactory.com
Rapidgator.net
Download 2
KatFile.com
Turbobit.net
FileFactory.com
Rapidgator.net

Tracklist:

1 - Highway Star - 6:06
2 - Maybe I'm A Leo - 4:49
3 - Pictures Of Home - 5:03
4 - Never Before - 3:58
5 - Smoke On The Water - 5:38
6 - Lazy - 7:20
7 - Space Truckin' - 4:32

EAC-Log, CUE-Sheed & NFO:

Click to open spoiler
Exact Audio Copy V1.0 beta 3 from 29. August 2011

EAC extraction logfile from 29. August 2013, 15:18

Deep Purple / Machine Head (CDP 7 46242 2)

Used drive : HL-DT-STDVDRAM GE20NU11 Adapter: 0 ID: 1

Read mode : Secure
Utilize accurate stream : Yes
Defeat audio cache : Yes
Make use of C2 pointers : No

Read offset correction : 667
Overread into Lead-In and Lead-Out : No
Fill up missing offset samples with silence : Yes
Delete leading and trailing silent blocks : No
Null samples used in CRC calculations : Yes
Used interface : Native Win32 interface for Win NT & 2000

Used output format : User Defined Encoder
Selected bitrate : 896 kBit/s
Quality : High
Add ID3 tag : No
Command line compressor : C:\Program Files\EAC 3\Exact Audio Copy\Flac\flac.exe
Additional command line options : -V -8 %source%

TOC of the extracted CD

Track | Start | Length | Start sector | End sector
———————————————————
1 | 0:00.33 | 6:08.57 | 33 | 27689
2 | 6:09.15 | 4:50.33 | 27690 | 49472
3 | 10:59.48 | 5:03.50 | 49473 | 72247
4 | 16:03.23 | 3:59.55 | 72248 | 90227
5 | 20:03.03 | 5:40.55 | 90228 | 115782
6 | 25:43.58 | 7:22.00 | 115783 | 148932
7 | 33:05.58 | 4:32.57 | 148933 | 169389

Range status and errors

Selected range

Filename C:\OdW\Deep Purple (1972) Machine Head (CDP 7 46242 2)\Deep Purple – Machine Head (CDP 7 46242 2).wav

Peak level 100.0 %
Extraction speed 1.6 X
Range quality 100.0 %
Test CRC 13991F6D
Copy CRC 13991F6D
Copy OK

No errors occurred

AccurateRip summary

Track 1 accurately ripped (confidence 35) [10C50650] (AR v2)
Track 2 accurately ripped (confidence 32) [DE1B653D] (AR v2)
Track 3 accurately ripped (confidence 33) [65FF168B] (AR v2)
Track 4 accurately ripped (confidence 34) [F27A25A7] (AR v2)
Track 5 accurately ripped (confidence 33) [C52D0592] (AR v2)
Track 6 accurately ripped (confidence 33) [4C915F5C] (AR v2)
Track 7 accurately ripped (confidence 33) [853AD843] (AR v2)

All tracks accurately ripped

End of status report

==== Log checksum 09874A5E912CC5CC174360DDDEA29C5B759BD64D651761A3BDD4FA16ACB63A16 ====

REM GENRE “Hard Rock”
REM DATE 1972
REM DISCID 5E08D207
REM COMMENT “ExactAudioCopy v1.0b3”
PERFORMER “Deep Purple”
TITLE “Machine Head (1986, CDP 7 46242 2)”
FILE “Deep Purple – Machine Head (CDP 7 46242 2).flac” WAVE
TRACK 01 AUDIO
TITLE “Highway Star”
PERFORMER “Deep Purple”
FLAGS PRE
INDEX 00 00:00:00
INDEX 01 00:00:33
TRACK 02 AUDIO
TITLE “Maybe I’m A Leo”
PERFORMER “Deep Purple”
FLAGS PRE
INDEX 00 06:07:15
INDEX 01 06:09:15
TRACK 03 AUDIO
TITLE “Pictures Of Home”
PERFORMER “Deep Purple”
FLAGS PRE
INDEX 00 10:58:40
INDEX 01 10:59:48
TRACK 04 AUDIO
TITLE “Never Before”
PERFORMER “Deep Purple”
FLAGS PRE
INDEX 00 16:02:58
INDEX 01 16:03:23
TRACK 05 AUDIO
TITLE “Smoke On The Water”
PERFORMER “Deep Purple”
FLAGS PRE
INDEX 00 20:02:13
INDEX 01 20:03:03
TRACK 06 AUDIO
TITLE “Lazy”
PERFORMER “Deep Purple”
FLAGS PRE
INDEX 00 25:41:33
INDEX 01 25:43:58
TRACK 07 AUDIO
TITLE “Space Truckin'”
PERFORMER “Deep Purple”
FLAGS PRE
INDEX 00 33:04:50
INDEX 01 33:05:58


Spread the Download

Leave a Reply

Your email address will not be published. Required fields are marked *

Enter the text from the image below
 

This site uses Akismet to reduce spam. Learn how your comment data is processed.