Deep Purple – Live In Stuttgart (Remastered)




No Cover available

Artist: Deep Purple
Year: 2013
Genre: Rock
Notes: Discogs
Add. Notes: Remastered
Watch Songs on: YouTube
Cover incl.: Yes
Encoder: FLAC
Bitrate: ~1000 kBit/s (44.1 kHz/16 Bit/s)
Log & Cue incl.: Yes/Yes
Size: 949,2 MB
Password: “slam” (without ” “)


All Downloads/Hosters are compatible

Download 1
KatFile.com
Turbobit.net
Rapidgator.net
FileFactory.com
Download 2
KatFile.com
Turbobit.net
Rapidgator.net
FileFactory.com

Tracklist:

1-1 Highway Star 7:21
1-2 Black Night 6:16
1-3 Talk About Love 4:22
1-4 A Twist In The Tale 4:38
1-5 Perfect Strangers 6:57
1-6 The Mule 2:20
1-7 Beethoven's Ninth 8:09
1-8 Knocking At Your Back Door 9:41
1-9 Anyone's Daughter 4:17
1-10 Child In Time 11:10
1-11 Anya 12:13

2-1 The Battle Rages On 6:38
2-2 Lazy 8:56
2-3 In The Hall Of The Mountain King 1:55
2-4 Space Truckin' 2:27
2-5 Woman From Tokyo 2:09
2-6 Paint It Black 5:35
2-7 Speed King 7:25
2-8 Hush 3:33
2-9 Smoke On The Water 12:28

EAC-Log, CUE-Sheed & NFO:

Click to open spoiler
Exact Audio Copy V1.0 beta 3 from 29. August 2011

EAC extraction logfile from 30. November 2013, 21:04

Deep Purple / Live In Stuttgart 1993. Stuttgart 1993 CD1

Used drive : ATAPI iHAS124 B Adapter: 2 ID: 0

Read mode : Secure
Utilize accurate stream : Yes
Defeat audio cache : Yes
Make use of C2 pointers : No

Read offset correction : 6
Overread into Lead-In and Lead-Out : No
Fill up missing offset samples with silence : Yes
Delete leading and trailing silent blocks : No
Null samples used in CRC calculations : Yes
Used interface : Native Win32 interface for Win NT & 2000

Used output format : User Defined Encoder
Selected bitrate : 1024 kBit/s
Quality : High
Add ID3 tag : No
Command line compressor : C:\Program Files (x86)\Exact Audio Copy\FLAC\FLAC.EXE
Additional command line options : -8 -V -T “ARTIST=%artist%” -T “TITLE=%title%” -T “ALBUM=%albumtitle%” -T “DATE=%year%” -T “TRACKNUMBER=%tracknr%” -T “GENRE=%genre%” -T “PERFORMER=%albuminterpret%” -T “COMPOSER=%composer%” %haslyrics%–tag-from-file=LYRICS=”%lyricsfile%”%haslyrics% -T “ALBUMARTIST=%albumartist%” -T “DISCNUMBER=%cdnumber%” -T “TOTALDISCS=%totalcds%” -T “TOTALTRACKS=%numtracks%” -T “COMMENT=%comment%” %source% -o %dest%

TOC of the extracted CD

Track | Start | Length | Start sector | End sector
———————————————————
1 | 0:00.00 | 7:21.31 | 0 | 33105
2 | 7:21.31 | 6:15.38 | 33106 | 61268
3 | 13:36.69 | 4:21.44 | 61269 | 80887
4 | 17:58.38 | 4:39.38 | 80888 | 101850
5 | 22:38.01 | 6:56.24 | 101851 | 133074
6 | 29:34.25 | 2:21.12 | 133075 | 143661
7 | 31:55.37 | 8:07.60 | 143662 | 180246
8 | 40:03.22 | 9:41.11 | 180247 | 223832
9 | 49:44.33 | 4:18.29 | 223833 | 243211
10 | 54:02.62 | 11:08.68 | 243212 | 293379
11 | 65:11.55 | 12:12.56 | 293380 | 348335

Range status and errors

Selected range

Filename G:\CD\Deep Purple – Stuttgart 1993 CD1.wav

Peak level 96.6 %
Extraction speed 6.7 X
Range quality 100.0 %
Test CRC 3363EF43
Copy CRC 3363EF43
Copy OK

No errors occurred

AccurateRip summary

Track 1 not present in database
Track 2 not present in database
Track 3 not present in database
Track 4 not present in database
Track 5 not present in database
Track 6 not present in database
Track 7 not present in database
Track 8 not present in database
Track 9 not present in database
Track 10 not present in database
Track 11 not present in database

None of the tracks are present in the AccurateRip database

End of status report

==== Log checksum D58795DBEFF39BE5F561BC812D6EB09EEE9174526DA8755C6E8F1DF59A20A905 ====

Exact Audio Copy V1.0 beta 3 from 29. August 2011

EAC extraction logfile from 30. November 2013, 21:23

Deep Purple / Live In Stuttgart 1993. Stuttgart 1993 CD2

Used drive : ATAPI iHAS124 B Adapter: 2 ID: 0

Read mode : Secure
Utilize accurate stream : Yes
Defeat audio cache : Yes
Make use of C2 pointers : No

Read offset correction : 6
Overread into Lead-In and Lead-Out : No
Fill up missing offset samples with silence : Yes
Delete leading and trailing silent blocks : No
Null samples used in CRC calculations : Yes
Used interface : Native Win32 interface for Win NT & 2000

Used output format : User Defined Encoder
Selected bitrate : 1024 kBit/s
Quality : High
Add ID3 tag : No
Command line compressor : C:\Program Files (x86)\Exact Audio Copy\FLAC\FLAC.EXE
Additional command line options : -8 -V -T “ARTIST=%artist%” -T “TITLE=%title%” -T “ALBUM=%albumtitle%” -T “DATE=%year%” -T “TRACKNUMBER=%tracknr%” -T “GENRE=%genre%” -T “PERFORMER=%albuminterpret%” -T “COMPOSER=%composer%” %haslyrics%–tag-from-file=LYRICS=”%lyricsfile%”%haslyrics% -T “ALBUMARTIST=%albumartist%” -T “DISCNUMBER=%cdnumber%” -T “TOTALDISCS=%totalcds%” -T “TOTALTRACKS=%numtracks%” -T “COMMENT=%comment%” %source% -o %dest%

TOC of the extracted CD

Track | Start | Length | Start sector | End sector
———————————————————
1 | 0:00.00 | 6:37.74 | 0 | 29848
2 | 6:37.74 | 8:56.44 | 29849 | 70092
3 | 15:34.43 | 1:53.47 | 70093 | 78614
4 | 17:28.15 | 2:26.58 | 78615 | 89622
5 | 19:54.73 | 2:08.73 | 89623 | 99295
6 | 22:03.71 | 5:36.16 | 99296 | 124511
7 | 27:40.12 | 7:25.22 | 124512 | 157908
8 | 35:05.34 | 3:32.44 | 157909 | 173852
9 | 38:38.03 | 12:27.01 | 173853 | 229878

Range status and errors

Selected range

Filename G:\CD\Deep Purple – Stuttgart 1993 CD2.wav

Peak level 96.6 %
Extraction speed 5.6 X
Range quality 99.9 %
Test CRC 30803076
Copy CRC 30803076
Copy OK

No errors occurred

AccurateRip summary

Track 1 not present in database
Track 2 not present in database
Track 3 not present in database
Track 4 not present in database
Track 5 not present in database
Track 6 not present in database
Track 7 not present in database
Track 8 not present in database
Track 9 not present in database

None of the tracks are present in the AccurateRip database

End of status report

==== Log checksum 9D90BB25E8DCE47115E26738D402E4FE7070448A6F8495AED211D42392965946 ====

REM GENRE “Hard Rock”
REM DATE 2006
REM DISCID 9912240B
REM COMMENT “ExactAudioCopy v1.0b3”
PERFORMER “Deep Purple”
TITLE “Live In Stuttgart 1993. Stuttgart 1993 CD1 (2013, 2CD, HNECD024D)”
FILE “Deep Purple – Stuttgart 1993 CD1.flac” WAVE
TRACK 01 AUDIO
TITLE “Intro / Highway Star”
PERFORMER “Deep Purple”
ISRC JPBV09319308
INDEX 01 00:00:00
TRACK 02 AUDIO
TITLE “Black Night”
PERFORMER “Deep Purple”
ISRC JPBV09319309
INDEX 01 07:21:31
TRACK 03 AUDIO
TITLE “Talk About Love”
PERFORMER “Deep Purple”
ISRC JPBV09319310
INDEX 01 13:36:69
TRACK 04 AUDIO
TITLE “A Twist In The Tale”
PERFORMER “Deep Purple”
ISRC JPBV09319311
INDEX 01 17:58:38
TRACK 05 AUDIO
TITLE “Perfect Strangers”
PERFORMER “Deep Purple”
ISRC JPBV09319312
INDEX 01 22:38:01
TRACK 06 AUDIO
TITLE “The Mule”
PERFORMER “Deep Purple”
ISRC JPBV09319313
INDEX 01 29:34:25
TRACK 07 AUDIO
TITLE “Beethoven’s Ninth”
PERFORMER “Deep Purple”
ISRC JPBV09319314
INDEX 01 31:55:37
TRACK 08 AUDIO
TITLE “Knocking At Your Back Door”
PERFORMER “Deep Purple”
ISRC JPBV09319315
INDEX 01 40:03:22
TRACK 09 AUDIO
TITLE “Anyone’s Daughter”
PERFORMER “Deep Purple”
ISRC JPBV09319316
INDEX 01 49:44:33
TRACK 10 AUDIO
TITLE “Child In Time”
PERFORMER “Deep Purple”
ISRC JPBV09319317
INDEX 01 54:02:62
TRACK 11 AUDIO
TITLE “Anya”
PERFORMER “Deep Purple”
ISRC JPBV09319318
INDEX 01 65:11:55

REM GENRE “Hard Rock”
REM DATE 2006
REM DISCID 6B0BF909
REM COMMENT “ExactAudioCopy v1.0b3”
PERFORMER “Deep Purple”
TITLE “Live In Stuttgart 1993. Stuttgart 1993 CD2 (2013, 2CD, HNECD024D)”
FILE “Deep Purple – Stuttgart 1993 CD2.flac” WAVE
TRACK 01 AUDIO
TITLE “The Battle Rages On”
PERFORMER “Deep Purple”
ISRC JPBV09319319
INDEX 01 00:00:00
TRACK 02 AUDIO
TITLE “Lazy”
PERFORMER “Deep Purple”
ISRC JPBV09319320
INDEX 01 06:37:74
TRACK 03 AUDIO
TITLE “In The Hall Of The Mountain King”
PERFORMER “Deep Purple”
ISRC JPBV09319321
INDEX 01 15:34:43
TRACK 04 AUDIO
TITLE “Space Truckin'”
PERFORMER “Deep Purple”
ISRC JPBV09319322
INDEX 01 17:28:15
TRACK 05 AUDIO
TITLE “Woman From Tokyo”
PERFORMER “Deep Purple”
ISRC JPBV09319323
INDEX 01 19:54:73
TRACK 06 AUDIO
TITLE “Paint It Black”
PERFORMER “Deep Purple”
ISRC JPBV09319324
INDEX 01 22:03:71
TRACK 07 AUDIO
TITLE “Speed King”
PERFORMER “Deep Purple”
ISRC JPBV09319325
INDEX 01 27:40:12
TRACK 08 AUDIO
TITLE “Hush”
PERFORMER “Deep Purple”
ISRC JPBV09319326
INDEX 01 35:05:34
TRACK 09 AUDIO
TITLE “Smoke On The Water”
PERFORMER “Deep Purple”
ISRC JPBV09319327
INDEX 01 38:38:03


Leave a Reply

Your email address will not be published. Required fields are marked *

Enter the text from the image below
 

This site uses Akismet to reduce spam. Learn how your comment data is processed.