Deep Purple – Live In Stockholm (Remastered)




No Cover available

Artist: Deep Purple
Year: 2005
Genre: Rock
Notes: Discogs
Add. Notes: Remastered
Watch Songs on: YouTube
Cover incl.: Yes
Encoder: FLAC
Bitrate: ~900 kBit/s (44.1 kHz/16 Bit/s)
Log & Cue incl.: Yes/Yes
Size: 832,5 MB
Password: “slam” (without ” “)


All Downloads/Hosters are compatible

Download 1
KatFile.com
Turbobit.net
FileFactory.com
Rapidgator.net
Download 2
KatFile.com
Turbobit.net
FileFactory.com
Rapidgator.net

Tracklist:

1-1 Introduction 2:12
1-2 Speed King 11:16
1-3 Into The Fire 5:18
1-4 Child In Time 19:04
1-5 Wring That Neck 30:59

2-1 Paint It Black 12:11
2-2 Mandrake Root 31:41
2-3 Black Night 7:11

EAC-Log, CUE-Sheed & NFO:

Click to open spoiler
Exact Audio Copy V1.0 beta 3 from 29. August 2011

EAC extraction logfile from 24. July 2013, 23:04

Deep Purple / Live In Stockholm CD1

Used drive : ATAPI iHAS124 B Adapter: 2 ID: 0

Read mode : Secure
Utilize accurate stream : Yes
Defeat audio cache : Yes
Make use of C2 pointers : No

Read offset correction : 6
Overread into Lead-In and Lead-Out : No
Fill up missing offset samples with silence : Yes
Delete leading and trailing silent blocks : No
Null samples used in CRC calculations : Yes
Used interface : Native Win32 interface for Win NT & 2000

Used output format : User Defined Encoder
Selected bitrate : 1024 kBit/s
Quality : High
Add ID3 tag : No
Command line compressor : C:\Program Files (x86)\Exact Audio Copy\FLAC\FLAC.EXE
Additional command line options : -8 -V -T “ARTIST=%artist%” -T “TITLE=%title%” -T “ALBUM=%albumtitle%” -T “DATE=%year%” -T “TRACKNUMBER=%tracknr%” -T “GENRE=%genre%” -T “PERFORMER=%albuminterpret%” -T “COMPOSER=%composer%” %haslyrics%–tag-from-file=LYRICS=”%lyricsfile%”%haslyrics% -T “ALBUMARTIST=%albumartist%” -T “DISCNUMBER=%cdnumber%” -T “TOTALDISCS=%totalcds%” -T “TOTALTRACKS=%numtracks%” -T “COMMENT=%comment%” %source% -o %dest%

TOC of the extracted CD

Track | Start | Length | Start sector | End sector
———————————————————
1 | 0:00.00 | 2:12.04 | 0 | 9903
2 | 2:12.04 | 11:16.03 | 9904 | 60606
3 | 13:28.07 | 5:18.63 | 60607 | 84519
4 | 18:46.70 | 19:04.10 | 84520 | 170329
5 | 37:51.05 | 30:59.67 | 170330 | 309821

Range status and errors

Selected range

Filename G:\CD\Deep Purple – Live In Stockholm CD1.wav

Peak level 96.6 %
Extraction speed 6.4 X
Range quality 100.0 %
Test CRC 3B1E39BF
Copy CRC 3B1E39BF
Copy OK

No errors occurred

AccurateRip summary

Track 1 accurately ripped (confidence 3) [9D8D21D6] (AR v2)
Track 2 accurately ripped (confidence 3) [496B728C] (AR v2)
Track 3 accurately ripped (confidence 3) [856BE8F6] (AR v2)
Track 4 accurately ripped (confidence 3) [D9BE283E] (AR v2)
Track 5 accurately ripped (confidence 3) [AF7262B3] (AR v2)

All tracks accurately ripped

End of status report

==== Log checksum 8712FC893FDD09EB0E503634033C7C52043264D431B8386457719340290D614A ====

Exact Audio Copy V1.0 beta 3 from 29. August 2011

EAC extraction logfile from 24. July 2013, 23:28

Deep Purple / Live In Stockholm CD2

Used drive : ATAPI iHAS124 B Adapter: 2 ID: 0

Read mode : Secure
Utilize accurate stream : Yes
Defeat audio cache : Yes
Make use of C2 pointers : No

Read offset correction : 6
Overread into Lead-In and Lead-Out : No
Fill up missing offset samples with silence : Yes
Delete leading and trailing silent blocks : No
Null samples used in CRC calculations : Yes
Used interface : Native Win32 interface for Win NT & 2000

Used output format : User Defined Encoder
Selected bitrate : 1024 kBit/s
Quality : High
Add ID3 tag : No
Command line compressor : C:\Program Files (x86)\Exact Audio Copy\FLAC\FLAC.EXE
Additional command line options : -8 -V -T “ARTIST=%artist%” -T “TITLE=%title%” -T “ALBUM=%albumtitle%” -T “DATE=%year%” -T “TRACKNUMBER=%tracknr%” -T “GENRE=%genre%” -T “PERFORMER=%albuminterpret%” -T “COMPOSER=%composer%” %haslyrics%–tag-from-file=LYRICS=”%lyricsfile%”%haslyrics% -T “ALBUMARTIST=%albumartist%” -T “DISCNUMBER=%cdnumber%” -T “TOTALDISCS=%totalcds%” -T “TOTALTRACKS=%numtracks%” -T “COMMENT=%comment%” %source% -o %dest%

TOC of the extracted CD

Track | Start | Length | Start sector | End sector
———————————————————
1 | 0:00.00 | 12:11.66 | 0 | 54890
2 | 12:11.66 | 31:41.33 | 54891 | 197498
3 | 43:53.24 | 7:10.55 | 197499 | 229803

Range status and errors

Selected range

Filename G:\CD\Deep Purple – Live In Stockholm CD2.wav

Peak level 96.6 %
Extraction speed 5.8 X
Range quality 99.9 %
Test CRC 00554287
Copy CRC 00554287
Copy OK

No errors occurred

AccurateRip summary

Track 1 accurately ripped (confidence 3) [6D0A8872] (AR v2)
Track 2 accurately ripped (confidence 3) [25C145EF] (AR v2)
Track 3 accurately ripped (confidence 3) [D3C6BC53] (AR v2)

All tracks accurately ripped

End of status report

==== Log checksum E190893D8DDCB56402F4DC20B2AE4527FAF6C16674EF1D7FDF1C8B2FA621B9FE ====

REM GENRE “Hard Rock”
REM DATE 2005
REM DISCID 2D102205
REM COMMENT “ExactAudioCopy v1.0b3”
PERFORMER “Deep Purple”
TITLE “Live In Stockholm CD1 (2006, 2CD, PUR338D)”
FILE “Deep Purple – Live In Stockholm CD1.flac” WAVE
TRACK 01 AUDIO
TITLE “Introduction”
PERFORMER “Deep Purple”
INDEX 01 00:00:00
TRACK 02 AUDIO
TITLE “Speed King”
PERFORMER “Deep Purple”
INDEX 01 02:12:04
TRACK 03 AUDIO
TITLE “Into The Fire”
PERFORMER “Deep Purple”
INDEX 01 13:28:07
TRACK 04 AUDIO
TITLE “Child In Time”
PERFORMER “Deep Purple”
INDEX 01 18:46:70
TRACK 05 AUDIO
TITLE “Wring That Neck”
PERFORMER “Deep Purple”
INDEX 01 37:51:05

REM GENRE “Hard Rock”
REM DATE 2005
REM DISCID 1F0BF803
REM COMMENT “ExactAudioCopy v1.0b3”
PERFORMER “Deep Purple”
TITLE “Live In Stockholm CD2 (2006, 2CD, PUR338D)”
FILE “Deep Purple – Live In Stockholm CD2.flac” WAVE
TRACK 01 AUDIO
TITLE “Paint It Black”
PERFORMER “Deep Purple”
INDEX 01 00:00:00
TRACK 02 AUDIO
TITLE “Mandrake Root”
PERFORMER “Deep Purple”
INDEX 01 12:11:66
TRACK 03 AUDIO
TITLE “Black Night”
PERFORMER “Deep Purple”
INDEX 01 43:53:24


Leave a Reply

Your email address will not be published. Required fields are marked *

Enter the text from the image below
 

This site uses Akismet to reduce spam. Learn how your comment data is processed.