Deep Purple – Live In Stockholm 1970 (Remastered)




No Cover available

Artist: Deep Purple
Year: 1988/2014
Genre: Rock
Notes: Discogs
Add. Notes: Remastered
Watch Songs on: YouTube
Cover incl.: Yes
Encoder: FLAC
Bitrate: ~900 kBit/s (44.1 kHz/16 Bit/s)
Log & Cue incl.: Yes/Yes
Size: 1028,4 MB
Password: “slam” (without ” “)


All Downloads/Hosters are compatible

Download 1
KatFile.com
Turbobit.net
Rapidgator.net
FileFactory.com
Download 2
KatFile.com
Turbobit.net
Rapidgator.net
FileFactory.com

Tracklist:

CD1
1 Speed King 12:30
2 Into The Fire 5:00
3 Child In Time 19:00
4 Wring That Neck 32:04
5 Paint It, Black 10:44

CD2
1 Mandrake Root 30:37
2 Black Night 7:20
Bonus
3 Wring That Neck (Live Paris 1970) 11:02
4 Mandrake Root (Live Paris 1970) 14:46
5 1971 Jon Lord Interview 10:46

EAC-Log, CUE-Sheed & NFO:

Click to open spoiler
Exact Audio Copy V1.0 beta 3 from 29. August 2011

EAC extraction logfile from 10. April 2014, 22:31

Deep Purple / Live In Stockholm 1970 CD1

Used drive : ATAPI iHAS124 B Adapter: 1 ID: 0

Read mode : Secure
Utilize accurate stream : Yes
Defeat audio cache : Yes
Make use of C2 pointers : No

Read offset correction : 6
Overread into Lead-In and Lead-Out : No
Fill up missing offset samples with silence : Yes
Delete leading and trailing silent blocks : No
Null samples used in CRC calculations : Yes
Used interface : Installed external ASPI interface

Used output format : User Defined Encoder
Selected bitrate : 128 kBit/s
Quality : High
Add ID3 tag : Yes
Command line compressor : C:\Program Files (x86)\Exact Audio Copy\Flac\flac.exe
Additional command line options : -V -8 %source%

TOC of the extracted CD

Track | Start | Length | Start sector | End sector
———————————————————
1 | 0:00.00 | 12:30.68 | 0 | 56317
2 | 12:30.68 | 5:00.64 | 56318 | 78881
3 | 17:31.57 | 19:00.08 | 78882 | 164389
4 | 36:31.65 | 32:04.62 | 164390 | 308751
5 | 68:36.52 | 10:44.32 | 308752 | 357083

Range status and errors

Selected range

Filename G:\CD\Deep Purple – Live In Stockholm 1970 CD1.wav

Peak level 99.8 %
Extraction speed 9.8 X
Range quality 100.0 %
Test CRC 6AD5B1EB
Copy CRC 6AD5B1EB
Copy OK

No errors occurred

AccurateRip summary

Track 1 accurately ripped (confidence 1) [7FC119B9] (AR v2)
Track 2 accurately ripped (confidence 1) [C610E090] (AR v2)
Track 3 accurately ripped (confidence 1) [D71371B0] (AR v2)
Track 4 accurately ripped (confidence 1) [A61EAE0C] (AR v2)
Track 5 accurately ripped (confidence 1) [4B9389FC] (AR v2)

All tracks accurately ripped

End of status report

—- CUETools DB Plugin V2.1.3

[CTDB TOCID: LwbfmzjzroBHcZBDsZg7OUXgmb0-] found, Submit result: already submitted
[854a118c] (1/2) Differs in 167 samples @00:31:22,00:51:44,01:17:11,01:21:23,03:27:34,04:06:67,04:27:16,04:29:18,04:32:42,04:51:45,05:36:13,08:38:25,11:28:37,11:31:48,16:04:20,17:31:40,17:58:03
[b4cd2dd2] (1/2) Accurately ripped
You can use CUETools to repair this rip.

==== Log checksum EFE437279A53832BB6172A2EF18437089F04DA19C9A1BC6D5C9EE9F76AE1E710 ====

Exact Audio Copy V1.0 beta 3 from 29. August 2011

EAC extraction logfile from 10. April 2014, 22:30

Deep Purple / Live In Stockholm 1970 CD2

Used drive : Optiarc BD RW BD-5300S Adapter: 0 ID: 0

Read mode : Secure
Utilize accurate stream : Yes
Defeat audio cache : Yes
Make use of C2 pointers : No

Read offset correction : 6
Overread into Lead-In and Lead-Out : No
Fill up missing offset samples with silence : Yes
Delete leading and trailing silent blocks : No
Null samples used in CRC calculations : Yes
Used interface : Installed external ASPI interface

Used output format : User Defined Encoder
Selected bitrate : 128 kBit/s
Quality : High
Add ID3 tag : Yes
Command line compressor : C:\Program Files (x86)\Exact Audio Copy\Flac\flac.exe
Additional command line options : -V -8 %source%

TOC of the extracted CD

Track | Start | Length | Start sector | End sector
———————————————————
1 | 0:00.00 | 30:37.00 | 0 | 137774
2 | 30:37.00 | 7:20.57 | 137775 | 170831
3 | 37:57.57 | 11:02.60 | 170832 | 220541
4 | 49:00.42 | 14:46.09 | 220542 | 287000
5 | 63:46.51 | 10:46.62 | 287001 | 335512

Range status and errors

Selected range

Filename G:\CD\Deep Purple – Live In Stockholm 1970 CD2.wav

Peak level 100.0 %
Extraction speed 9.6 X
Range quality 100.0 %
Test CRC C84B6ED2
Copy CRC C84B6ED2
Copy OK

No errors occurred

AccurateRip summary

Track 1 accurately ripped (confidence 1) [0CD8F6F1] (AR v2)
Track 2 accurately ripped (confidence 1) [B085E8A7] (AR v2)
Track 3 accurately ripped (confidence 1) [6AEB58A5] (AR v2)
Track 4 accurately ripped (confidence 1) [20C01514] (AR v2)
Track 5 accurately ripped (confidence 1) [65891119] (AR v2)

All tracks accurately ripped

End of status report

—- CUETools DB Plugin V2.1.3

[CTDB TOCID: .uH_hno1vZKws2kd9Uf_669mTu8-] found, Submit result: .uH_hno1vZKws2kd9Uf_669mTu8- has been confirmed
[0055b288] (2/2) Accurately ripped

==== Log checksum 0942DAB859A226F90630ACBEFFDDF61EA32185A5C3664F7157F628C5106EF329 ====

REM GENRE “Hard Rock”
REM DATE 2014
REM DISCID 36129905
REM COMMENT “ExactAudioCopy v1.0b3”
PERFORMER “Deep Purple”
TITLE “Live In Stockholm 1970 CD1 (2014, 2CD+DVD, 0208677ERE)”
FILE “Deep Purple – Live In Stockholm 1970 CD1.flac” WAVE
TRACK 01 AUDIO
TITLE “Speed King”
PERFORMER “Deep Purple”
ISRC AUTQ07000501
INDEX 01 00:00:00
TRACK 02 AUDIO
TITLE “Into The Fire”
PERFORMER “Deep Purple”
ISRC AUTQ07000502
INDEX 01 12:30:68
TRACK 03 AUDIO
TITLE “Child In Time”
PERFORMER “Deep Purple”
ISRC AUTQ07000503
INDEX 01 17:31:57
TRACK 04 AUDIO
TITLE “Wring That Neck”
PERFORMER “Deep Purple”
ISRC AUTQ07000504
INDEX 01 36:31:65
TRACK 05 AUDIO
TITLE “Paint It, Black”
PERFORMER “Deep Purple”
ISRC AUTQ07000505
INDEX 01 68:36:52

REM GENRE “Hard Rock”
REM DATE 2014
REM DISCID 51117905
REM COMMENT “ExactAudioCopy v1.0b3”
PERFORMER “Deep Purple”
TITLE “Live In Stockholm 1970 CD2 (2014, 2CD+DVD, 0208677ERE)”
FILE “Deep Purple – Live In Stockholm 1970 CD2.flac” WAVE
TRACK 01 AUDIO
TITLE “Mandrake Root”
PERFORMER “Deep Purple”
ISRC AUTQ07000506
INDEX 01 00:00:00
TRACK 02 AUDIO
TITLE “Black Night”
PERFORMER “Deep Purple”
ISRC AUTQ07000507
INDEX 01 30:37:00
TRACK 03 AUDIO
TITLE “Wring That Neck (Live Paris 1970)”
PERFORMER “Deep Purple”
ISRC AUTQ07000508
INDEX 00 37:54:44
INDEX 01 37:57:57
TRACK 04 AUDIO
TITLE “Madrake Root (Live Paris 1970)”
PERFORMER “Deep Purple”
ISRC AUTQ07000509
INDEX 01 49:00:42
TRACK 05 AUDIO
TITLE “1971 Jon Lord Interview”
PERFORMER “Deep Purple”
ISRC AUTQ07000510
INDEX 00 63:44:38
INDEX 01 63:46:51


Leave a Reply

Your email address will not be published. Required fields are marked *

Enter the text from the image below
 

This site uses Akismet to reduce spam. Learn how your comment data is processed.