Deep Purple – Live in Paris 1975 (Remastered)




No Cover available

Artist: Deep Purple
Year: 2012
Genre: Rock
Notes: Discogs
Add. Notes: Remastered
Watch Songs on: YouTube
Cover incl.: Yes
Encoder: FLAC
Bitrate: ~1000 kBit/s (44.1 kHz/16 Bit/s)
Log & Cue incl.: Yes/Yes
Size: 956 MB
Password: “slam” (without ” “)


All Downloads/Hosters are compatible

Download 1
KatFile.com
Turbobit.net
FileFactory.com
Rapidgator.net
Download 2
KatFile.com
Turbobit.net
FileFactory.com
Rapidgator.net

Tracklist:

1-1 Burn 9:46
1-2 Stormbringer 5:13
1-3 The Gypsy 6:11
1-4 Lady Double Dealer 4:36
1-5 Mistreated 12:49
1-6 Smoke On The Water 11:11
1-7 You Fool No One 19:31

2-1 Space Trucking 21:22
2-2 Going Down 5:19
2-3 Highway Star 11:33
2-4 1975 Interview With David Coverdale, Glenn Hughes 
& Ian Paice 23:19

EAC-Log, CUE-Sheed & NFO:

Click to open spoiler
Exact Audio Copy V1.0 beta 3 from 29. August 2011

EAC extraction logfile from 18. June 2013, 20:46

Deep Purple / Paris 1975 CD1

Used drive : ATAPI iHAS124 B Adapter: 2 ID: 0

Read mode : Secure
Utilize accurate stream : Yes
Defeat audio cache : Yes
Make use of C2 pointers : No

Read offset correction : 6
Overread into Lead-In and Lead-Out : No
Fill up missing offset samples with silence : Yes
Delete leading and trailing silent blocks : No
Null samples used in CRC calculations : Yes
Used interface : Native Win32 interface for Win NT & 2000

Used output format : User Defined Encoder
Selected bitrate : 1024 kBit/s
Quality : High
Add ID3 tag : No
Command line compressor : C:\Program Files (x86)\Exact Audio Copy\FLAC\FLAC.EXE
Additional command line options : -8 -V -T “ARTIST=%artist%” -T “TITLE=%title%” -T “ALBUM=%albumtitle%” -T “DATE=%year%” -T “TRACKNUMBER=%tracknr%” -T “GENRE=%genre%” -T “PERFORMER=%albuminterpret%” -T “COMPOSER=%composer%” %haslyrics%–tag-from-file=LYRICS=”%lyricsfile%”%haslyrics% -T “ALBUMARTIST=%albumartist%” -T “DISCNUMBER=%cdnumber%” -T “TOTALDISCS=%totalcds%” -T “TOTALTRACKS=%numtracks%” -T “COMMENT=%comment%” %source% -o %dest%

TOC of the extracted CD

Track | Start | Length | Start sector | End sector
———————————————————
1 | 0:00.00 | 8:36.44 | 0 | 38743
2 | 8:36.44 | 5:14.42 | 38744 | 62335
3 | 13:51.11 | 6:08.28 | 62336 | 89963
4 | 19:59.39 | 4:25.45 | 89964 | 109883
5 | 24:25.09 | 12:57.21 | 109884 | 168179
6 | 37:22.30 | 10:23.28 | 168180 | 214932
7 | 47:45.58 | 19:26.49 | 214933 | 302431

Range status and errors

Selected range

Filename G:\CD\Deep Purple – Paris 1975 CD1.wav

Peak level 100.0 %
Extraction speed 6.5 X
Range quality 100.0 %
Test CRC 1EA87BB4
Copy CRC 1EA87BB4
Copy OK

No errors occurred

AccurateRip summary

Track 1 accurately ripped (confidence 3) [C7CDDD22] (AR v1)
Track 2 accurately ripped (confidence 3) [7856F35A] (AR v1)
Track 3 accurately ripped (confidence 3) [2C6F2B13] (AR v1)
Track 4 accurately ripped (confidence 3) [E42E7B02] (AR v1)
Track 5 accurately ripped (confidence 3) [243644A2] (AR v1)
Track 6 accurately ripped (confidence 3) [BBE55916] (AR v1)
Track 7 accurately ripped (confidence 3) [748B739A] (AR v1)

All tracks accurately ripped

End of status report

==== Log checksum 3AA8761685FF0D12852E23E53D391480F1FDF1CBC5CF54315C20EAA3C1D19170 ====

Exact Audio Copy V1.0 beta 3 from 29. August 2011

EAC extraction logfile from 18. June 2013, 21:15

Deep Purple / Paris 1975 CD2

Used drive : ATAPI iHAS124 B Adapter: 2 ID: 0

Read mode : Secure
Utilize accurate stream : Yes
Defeat audio cache : Yes
Make use of C2 pointers : No

Read offset correction : 6
Overread into Lead-In and Lead-Out : No
Fill up missing offset samples with silence : Yes
Delete leading and trailing silent blocks : No
Null samples used in CRC calculations : Yes
Used interface : Native Win32 interface for Win NT & 2000

Used output format : User Defined Encoder
Selected bitrate : 1024 kBit/s
Quality : High
Add ID3 tag : No
Command line compressor : C:\Program Files (x86)\Exact Audio Copy\FLAC\FLAC.EXE
Additional command line options : -8 -V -T “ARTIST=%artist%” -T “TITLE=%title%” -T “ALBUM=%albumtitle%” -T “DATE=%year%” -T “TRACKNUMBER=%tracknr%” -T “GENRE=%genre%” -T “PERFORMER=%albuminterpret%” -T “COMPOSER=%composer%” %haslyrics%–tag-from-file=LYRICS=”%lyricsfile%”%haslyrics% -T “ALBUMARTIST=%albumartist%” -T “DISCNUMBER=%cdnumber%” -T “TOTALDISCS=%totalcds%” -T “TOTALTRACKS=%numtracks%” -T “COMMENT=%comment%” %source% -o %dest%

TOC of the extracted CD

Track | Start | Length | Start sector | End sector
———————————————————
1 | 0:00.00 | 21:23.68 | 0 | 96292
2 | 21:23.68 | 5:16.46 | 96293 | 120038
3 | 26:40.39 | 11:35.23 | 120039 | 172186
4 | 38:15.62 | 23:19.37 | 172187 | 277148

Range status and errors

Selected range

Filename G:\CD\Deep Purple – Paris 1975 CD2.wav

Peak level 100.0 %
Extraction speed 6.1 X
Range quality 100.0 %
Test CRC 9EBA52E1
Copy CRC 9EBA52E1
Copy OK

No errors occurred

AccurateRip summary

Track 1 accurately ripped (confidence 2) [298CDFB8] (AR v1)
Track 2 accurately ripped (confidence 2) [C17A0FA4] (AR v1)
Track 3 accurately ripped (confidence 2) [8B42BC8A] (AR v1)
Track 4 accurately ripped (confidence 1) [65C5E6CA] (AR v1)

All tracks accurately ripped

End of status report

==== Log checksum 05CB72E3DB9493A3D40FD0383B68C40B714C8369A4F7D7736FCC4A959F2E0FFF ====

REM GENRE “Hard Rock”
REM DATE 2001
REM DISCID 570FC007
REM COMMENT “ExactAudioCopy v1.0b3”
PERFORMER “Deep Purple”
TITLE “Paris 1975 CD1 (2012, 2CD, 0208332ERE)”
FILE “Deep Purple – Paris 1975 CD1.flac” WAVE
TRACK 01 AUDIO
TITLE “Burn”
PERFORMER “Deep Purple”
INDEX 01 00:00:00
TRACK 02 AUDIO
TITLE “Stormbringer”
PERFORMER “Deep Purple”
INDEX 01 08:36:44
TRACK 03 AUDIO
TITLE “The Gypsy”
PERFORMER “Deep Purple”
INDEX 01 13:51:11
TRACK 04 AUDIO
TITLE “Lady Double Dealer”
PERFORMER “Deep Purple”
INDEX 01 19:59:39
TRACK 05 AUDIO
TITLE “Mistreated”
PERFORMER “Deep Purple”
INDEX 01 24:25:09
TRACK 06 AUDIO
TITLE “Smoke On The Water”
PERFORMER “Deep Purple”
INDEX 01 37:22:30
TRACK 07 AUDIO
TITLE “You Fool No One”
PERFORMER “Deep Purple”
INDEX 01 47:45:58

REM GENRE “Hard Rock”
REM DATE 2001
REM DISCID 2F0E6F04
REM COMMENT “ExactAudioCopy v1.0b3”
PERFORMER “Deep Purple”
TITLE “Paris 1975 CD2 (2012, 2CD, 0208332ERE)”
FILE “Deep Purple – Paris 1975 CD2.flac” WAVE
TRACK 01 AUDIO
TITLE “Space Truckin'”
PERFORMER “Deep Purple”
INDEX 01 00:00:00
TRACK 02 AUDIO
TITLE “Going Down”
PERFORMER “Deep Purple”
INDEX 01 21:23:68
TRACK 03 AUDIO
TITLE “Highway Star”
PERFORMER “Deep Purple”
INDEX 01 26:40:39
TRACK 04 AUDIO
TITLE “Interview With Coverdale, Hughes & Paice (Bonus Track)”
PERFORMER “Deep Purple”
INDEX 00 38:11:48
INDEX 01 38:15:62


Leave a Reply

Your email address will not be published. Required fields are marked *

Enter the text from the image below
 

This site uses Akismet to reduce spam. Learn how your comment data is processed.