Deep Purple – Live In Montreux 1969 (Remastered)




No Cover available

Artist: Deep Purple
Year: 2006
Genre: Rock
Notes: Discogs
Add. Notes: Remastered
Watch Songs on: YouTube
Cover incl.: Yes
Encoder: FLAC
Bitrate: ~700 kBit/s (44.1 kHz/16 Bit/s)
Log & Cue incl.: Yes/Yes
Size: 324,6 MB
Password: “slam” (without ” “)


All Downloads/Hosters are compatible

Download 1
KatFile.com
Turbobit.net
Rapidgator.net
FileFactory.com
Download 2
KatFile.com
Turbobit.net
Rapidgator.net
FileFactory.com

Tracklist:

1-1 Speed King / Kneel & Pray 5:54
1-2 Hush 6:20
1-3 Child In Time 12:38
1-4 Wring That Neck 20:30
2-1 Paint It Black 10:48
2-2 Mandrake Root 22:08
2-3 Kentucky Woman 6:00

EAC-Log, CUE-Sheed & NFO:

Click to open spoiler
Exact Audio Copy V1.0 beta 3 from 29. August 2011

EAC extraction logfile from 10. July 2013, 0:38

Deep Purple / Live In Montreux 1969 CD1

Used drive : ATAPI iHAS124 B Adapter: 2 ID: 0

Read mode : Secure
Utilize accurate stream : Yes
Defeat audio cache : Yes
Make use of C2 pointers : No

Read offset correction : 6
Overread into Lead-In and Lead-Out : No
Fill up missing offset samples with silence : Yes
Delete leading and trailing silent blocks : No
Null samples used in CRC calculations : Yes
Used interface : Native Win32 interface
for Win NT & 2000

Used output format : User Defined Encoder
Selected bitrate : 1024 kBit/s
Quality : High
Add ID3 tag : No
Command line compressor : C:\Program Files
(x86)\Exact Audio Copy\FLAC\FLAC.EXE
Additional command line options : -8 -V -T “ARTIST=%
artist%” -T “TITLE=%title%” -T “ALBUM=%
albumtitle%” -T “DATE=%year%” -T “TRACKNUMBER=%
tracknr%” -T “GENRE=%genre%” -T “PERFORMER=%
albuminterpret%” -T “COMPOSER=%composer%” %
haslyrics%–tag-from-file=LYRICS=”%lyricsfile%”%
haslyrics% -T “ALBUMARTIST=%albumartist%” -T
“DISCNUMBER=%cdnumber%” -T “TOTALDISCS=%
totalcds%” -T “TOTALTRACKS=%numtracks%” -T
“COMMENT=%comment%” %source% -o %dest%

TOC of the extracted CD

Track | Start | Length | Start sector | End sector
———————————————————
1 | 0:00.00 | 5:54.34 | 0 | 26583
2 | 5:54.34 | 6:55.09 | 26584 | 57717
3 | 12:49.43 | 12:44.09 | 57718 | 115026
4 | 25:33.52 | 20:33.26 | 115027 | 207527

Range status and errors

Selected range

Filename G:\CD\Deep Purple – Live In Montreux 1969
CD1.wav

Peak level 98.8 %
Extraction speed 5.7 X
Range quality 100.0 %
Test CRC 4175AF26
Copy CRC 4175AF26
Copy OK

No errors occurred

AccurateRip summary

Track 1 accurately ripped (confidence 4) [F02E70CB]
(AR v1)
Track 2 accurately ripped (confidence 4) [7DE268B0]
(AR v1)
Track 3 accurately ripped (confidence 4) [F52F350A]
(AR v1)
Track 4 accurately ripped (confidence 4) [2C3138C5]
(AR v1)

All tracks accurately ripped

End of status report

==== Log checksum
CBBBAF8E3A2C90453E55DB15C85FA6CE7490A622BA0F
02389E62814C546E5C0B ====

Exact Audio Copy V1.0 beta 3 from 29. August 2011

EAC extraction logfile from 10. July 2013, 0:54

Deep Purple / Live In Montreux 1969 CD2

Used drive : ATAPI iHAS124 B Adapter: 2 ID: 0

Read mode : Secure
Utilize accurate stream : Yes
Defeat audio cache : Yes
Make use of C2 pointers : No

Read offset correction : 6
Overread into Lead-In and Lead-Out : No
Fill up missing offset samples with silence : Yes
Delete leading and trailing silent blocks : No
Null samples used in CRC calculations : Yes
Used interface : Native Win32 interface
for Win NT & 2000

Used output format : User Defined Encoder
Selected bitrate : 1024 kBit/s
Quality : High
Add ID3 tag : No
Command line compressor : C:\Program Files
(x86)\Exact Audio Copy\FLAC\FLAC.EXE
Additional command line options : -8 -V -T “ARTIST=%
artist%” -T “TITLE=%title%” -T “ALBUM=%
albumtitle%” -T “DATE=%year%” -T “TRACKNUMBER=%
tracknr%” -T “GENRE=%genre%” -T “PERFORMER=%
albuminterpret%” -T “COMPOSER=%composer%” %
haslyrics%–tag-from-file=LYRICS=”%lyricsfile%”%
haslyrics% -T “ALBUMARTIST=%albumartist%” -T
“DISCNUMBER=%cdnumber%” -T “TOTALDISCS=%
totalcds%” -T “TOTALTRACKS=%numtracks%” -T
“COMMENT=%comment%” %source% -o %dest%

TOC of the extracted CD

Track | Start | Length | Start sector | End sector
———————————————————
1 | 0:00.00 | 13:52.64 | 0 | 62463
2 | 13:52.64 | 24:43.30 | 62464 | 173718
3 | 38:36.19 | 5:26.70 | 173719 | 198238

Range status and errors

Selected range

Filename G:\CD\Deep Purple – Live In Montreux 1969
CD2.wav

Peak level 98.8 %
Extraction speed 5.5 X
Range quality 100.0 %
Test CRC 7B1B8572
Copy CRC 7B1B8572
Copy OK

No errors occurred

AccurateRip summary

Track 1 accurately ripped (confidence 4) [37EF8D03]
(AR v1)
Track 2 accurately ripped (confidence 4) [1247342A]
(AR v1)
Track 3 accurately ripped (confidence 4) [1B774420]
(AR v1)

All tracks accurately ripped

End of status report

==== Log checksum
E863196A29707AF6FBF00707844D992FBC96E05247157
017E617114AB9FDC5A2 ====

REM GENRE “Hard Rock”
REM DATE 2003
REM DISCID 2D0ACF04
REM COMMENT “ExactAudioCopy v1.0b3”
PERFORMER “Deep Purple”
TITLE “Live In Montreux 1969 CD1 (2006, 2CD, PUR257)”
FILE “Deep Purple – Live In Montreux 1969 CD1.flac”
WAVE
TRACK 01 AUDIO
TITLE “Speed King”
PERFORMER “Deep Purple”
INDEX 01 00:00:00
TRACK 02 AUDIO
TITLE “Hush”
PERFORMER “Deep Purple”
INDEX 00 05:21:27
INDEX 01 05:54:34
TRACK 03 AUDIO
TITLE “Child In Time”
PERFORMER “Deep Purple”
INDEX 00 12:26:06
INDEX 01 12:49:43
TRACK 04 AUDIO
TITLE “Wring That Neck”
PERFORMER “Deep Purple”
INDEX 00 25:17:21
INDEX 01 25:33:52

REM GENRE “Hard Rock”
REM DATE 2003
REM DISCID 1F0A5303
REM COMMENT “ExactAudioCopy v1.0b3”
PERFORMER “Deep Purple”
TITLE “Live In Montreux 1969 CD2 (2006, 2CD, PUR257)”
FILE “Deep Purple – Live In Montreux 1969 CD2.flac”
WAVE
TRACK 01 AUDIO
TITLE “Paint it black”
PERFORMER “Deep Purple”
INDEX 01 00:00:00
TRACK 02 AUDIO
TITLE “Mandrake root”
PERFORMER “Deep Purple”
INDEX 00 10:56:04
INDEX 01 13:52:64
TRACK 03 AUDIO
TITLE “Kentucky woman”
PERFORMER “Deep Purple”
INDEX 00 36:09:15
INDEX 01 38:36:19


Leave a Reply

Your email address will not be published. Required fields are marked *

Enter the text from the image below
 

This site uses Akismet to reduce spam. Learn how your comment data is processed.