Deep Purple – Live In Long Beach 1971 (Remastered)




No Cover available

Artist: Deep Purple
Year: 2015
Genre: Rock
Notes: Discogs
Add. Notes: Remastered
Watch Songs on: YouTube
Cover incl.: Yes
Encoder: FLAC
Bitrate: ~900 kBit/s (44.1 kHz/16 Bit/s)
Log & Cue incl.: Yes/Yes
Size: 535,8 MB
Password: “slam” (without ” “)


All Downloads/Hosters are compatible

Download 1
KatFile.com
Turbobit.net
Rapidgator.net
FileFactory.com
Download 2
KatFile.com
Turbobit.net
Rapidgator.net
FileFactory.com

Tracklist:

1 Speed King 11:05
2 Strange Kind Of Woman 11:12
3 Child In Time 20:25
4 Mandrake Root 27:18

EAC-Log, CUE-Sheed & NFO:

Click to open spoiler
Exact Audio Copy V1.0 beta 4 from 7. December 2014

EAC extraction logfile from 9. April 2015, 9:55

Deep Purple / Live In Long Beach 1971 (2015, 0210220EMU)

Used drive : ATAPI iHAS124 B Adapter: 1 ID: 0

Read mode : Secure
Utilize accurate stream : Yes
Defeat audio cache : Yes
Make use of C2 pointers : No

Read offset correction : 6
Overread into Lead-In and Lead-Out : No
Fill up missing offset samples with silence : Yes
Delete leading and trailing silent blocks : No
Null samples used in CRC calculations : Yes
Used interface : Installed external ASPI interface

Used output format : User Defined Encoder
Selected bitrate : 128 kBit/s
Quality : High
Add ID3 tag : Yes
Command line compressor : C:\Program Files (x86)\Exact Audio Copy\Flac\flac.exe
Additional command line options : -V -8 -T “Date=%year%” -T “Genre=%genre%” %source%

TOC of the extracted CD

Track | Start | Length | Start sector | End sector
———————————————————
1 | 0:00.00 | 11:04.50 | 0 | 49849
2 | 11:04.50 | 11:11.48 | 49850 | 100222
3 | 22:16.23 | 20:24.44 | 100223 | 192066
4 | 42:40.67 | 27:17.71 | 192067 | 314912

Range status and errors

Selected range

Filename G:\CD\Deep Purple – Live In Long Beach 1971.wav

Peak level 100.0 %
Extraction speed 9.2 X
Range quality 100.0 %
Test CRC D6869D14
Copy CRC D6869D14
Copy OK

No errors occurred

AccurateRip summary

Track 1 accurately ripped (confidence 1) [B28F6BD6] (AR v2)
Track 2 accurately ripped (confidence 1) [2C3A71C1] (AR v2)
Track 3 accurately ripped (confidence 1) [10E1E089] (AR v2)
Track 4 accurately ripped (confidence 1) [BF93AAB6] (AR v2)

All tracks accurately ripped

End of status report

—- CUETools DB Plugin V2.1.4

[CTDB TOCID: bDVxV6bB8RpwkBMWyn.k57Vp5Lw-] found
Submit result: bDVxV6bB8RpwkBMWyn.k57Vp5Lw- has been confirmed
Track | CTDB Status
1 | (11/11) Accurately ripped
2 | (11/11) Accurately ripped
3 | (11/11) Accurately ripped
4 | (11/11) Accurately ripped

==== Log checksum F7B9FE93B0D760ECB9F4F88F724D47979EF0BCDE8CACFC1A1FA01B31AE945D9E ====

REM GENRE “Hard Rock”
REM DATE 2015
REM DISCID 32106604
REM COMMENT “ExactAudioCopy v1.0b4”
PERFORMER “Deep Purple”
TITLE “Live In Long Beach 1971 (2015, 0210220EMU)”
FILE “Deep Purple – Live In Long Beach 1971.flac” WAVE
TRACK 01 AUDIO
TITLE “Speed King”
PERFORMER “Deep Purple”
INDEX 01 00:00:00
TRACK 02 AUDIO
TITLE “Strange Kind of Woman”
PERFORMER “Deep Purple”
INDEX 01 11:04:50
TRACK 03 AUDIO
TITLE “Child in Time”
PERFORMER “Deep Purple”
INDEX 01 22:16:23
TRACK 04 AUDIO
TITLE “Mandrake Root”
PERFORMER “Deep Purple”
INDEX 01 42:40:67


0

Publication author

offline 7 hours

Chaos

3
Comments: 4Publics: 3360Registration: 02-02-2019
Spread the Download

Leave a Reply

Your email address will not be published. Required fields are marked *

Enter the text from the image below
 

This site uses Akismet to reduce spam. Learn how your comment data is processed.