Deep Purple – Live In London (Remastered)




Artist: Deep Purple
Year: 1982/2007
Genre: Rock
Notes: Discogs
Add. Notes: Remastered
Cover incl.: Yes
Encoder: FLAC
Bitrate: ~900 kBit/s (44.1 kHz/16 Bit/s)
Log & Cue incl.: Yes
Size: 718 MB
Password: “slam” (without ” “)


All Downloads/Hosters are compatible

Download 1
KatFile.com
Turbobit.net
Rapidgator.net
Turbobit.net
Download 2
KatFile.com
Turbobit.net
Rapidgator.net
Turbobit.net

Tracklist:

1-1  - Burn  - 7:45
1-2  - Might Just Take Your Life  - 
5:17
1-3  - Lay Down, Stay Down  - 5:29
1-4  - Mistreated  - 15:28
1-5  - Smoke On The Water  - 9:13
2-1  - You Fool No One  - 20:22
2-2  - Space Truckin'  - 31:02 

EAC-Log, CUE-Sheed & NFO:

Click to open spoiler
Exact Audio Copy V1.0 beta 3 from 29. August 2011

EAC extraction logfile from 25. July 2013, 9:16

Deep Purple / Live In London CD1

Used drive : ATAPI iHAS124 B Adapter: 2 ID: 0

Read mode : Secure
Utilize accurate stream : Yes
Defeat audio cache : Yes
Make use of C2 pointers : No

Read offset correction : 6
Overread into Lead-In and Lead-Out : No
Fill up missing offset samples with silence : Yes
Delete leading and trailing silent blocks : No
Null samples used in CRC calculations : Yes
Used interface : Native Win32 interface for Win NT & 2000

Used output format : User Defined Encoder
Selected bitrate : 1024 kBit/s
Quality : High
Add ID3 tag : No
Command line compressor : C:\Program Files (x86)\Exact Audio Copy\FLAC\FLAC.EXE
Additional command line options : -8 -V -T “ARTIST=%artist%” -T “TITLE=%title%” -T “ALBUM=%albumtitle%” -T “DATE=%year%” -T “TRACKNUMBER=%tracknr%” -T “GENRE=%genre%” -T “PERFORMER=%albuminterpret%” -T “COMPOSER=%composer%” %haslyrics%–tag-from-file=LYRICS=”%lyricsfile%”%haslyrics% -T “ALBUMARTIST=%albumartist%” -T “DISCNUMBER=%cdnumber%” -T “TOTALDISCS=%totalcds%” -T “TOTALTRACKS=%numtracks%” -T “COMMENT=%comment%” %source% -o %dest%

TOC of the extracted CD

Track | Start | Length | Start sector | End sector
———————————————————
1 | 0:00.00 | 7:46.13 | 0 | 34962
2 | 7:46.13 | 5:17.24 | 34963 | 58761
3 | 13:03.37 | 5:29.25 | 58762 | 83461
4 | 18:32.62 | 15:28.70 | 83462 | 153131
5 | 34:01.57 | 9:13.72 | 153132 | 194678

Range status and errors

Selected range

Filename G:\CD\Deep Purple – Live In London CD1.wav

Peak level 100.0 %
Extraction speed 5.2 X
Range quality 100.0 %
Test CRC 9B261887
Copy CRC 9B261887
Copy OK

No errors occurred

AccurateRip summary

Track 1 accurately ripped (confidence 4) [33A3250F] (AR v2)
Track 2 accurately ripped (confidence 4) [0E304BDF] (AR v2)
Track 3 accurately ripped (confidence 4) [AE604D3C] (AR v2)
Track 4 accurately ripped (confidence 4) [C583C30A] (AR v2)
Track 5 accurately ripped (confidence 4) [96B22C6C] (AR v2)

All tracks accurately ripped

End of status report

==== Log checksum 60669A92904689694816B6EDC3885BB3510CEB207445818AAF068E776C9194CE ====

Exact Audio Copy V1.0 beta 3 from 29. August 2011

EAC extraction logfile from 25. July 2013, 9:59

Deep Purple / Live in London CD2

Used drive : ATAPI iHAS124 B Adapter: 2 ID: 0

Read mode : Secure
Utilize accurate stream : Yes
Defeat audio cache : Yes
Make use of C2 pointers : No

Read offset correction : 6
Overread into Lead-In and Lead-Out : No
Fill up missing offset samples with silence : Yes
Delete leading and trailing silent blocks : No
Null samples used in CRC calculations : Yes
Used interface : Native Win32 interface for Win NT & 2000

Used output format : User Defined Encoder
Selected bitrate : 1024 kBit/s
Quality : High
Add ID3 tag : No
Command line compressor : C:\Program Files (x86)\Exact Audio Copy\FLAC\FLAC.EXE
Additional command line options : -8 -V -T “ARTIST=%artist%” -T “TITLE=%title%” -T “ALBUM=%albumtitle%” -T “DATE=%year%” -T “TRACKNUMBER=%tracknr%” -T “GENRE=%genre%” -T “PERFORMER=%albuminterpret%” -T “COMPOSER=%composer%” %haslyrics%–tag-from-file=LYRICS=”%lyricsfile%”%haslyrics% -T “ALBUMARTIST=%albumartist%” -T “DISCNUMBER=%cdnumber%” -T “TOTALDISCS=%totalcds%” -T “TOTALTRACKS=%numtracks%” -T “COMMENT=%comment%” %source% -o %dest%

TOC of the extracted CD

Track | Start | Length | Start sector | End sector
———————————————————
1 | 0:00.00 | 20:23.13 | 0 | 91737
2 | 20:23.13 | 31:03.11 | 91738 | 231473

Range status and errors

Selected range

Filename G:\CD\Deep Purple – Live in London CD2.wav

Peak level 99.2 %
Extraction speed 2.9 X
Range quality 100.0 %
Test CRC ADD6BC15
Copy CRC ADD6BC15
Copy OK

No errors occurred

AccurateRip summary

Track 1 accurately ripped (confidence 5) [77DE41C1] (AR v2)
Track 2 accurately ripped (confidence 6) [846DE653] (AR v2)

All tracks accurately ripped

End of status report

==== Log checksum 110AA2BB95D652ECE4BB755081D40CB0713DC521B3FE91EE42D0F12A69C6FEE8 ====

REM GENRE “Hard Rock”
REM DATE 1982
REM DISCID 380A2305
REM COMMENT “ExactAudioCopy v1.0b3”
PERFORMER “Deep Purple”
TITLE “Live In London CD1 (2007, 2CD, 5099950358021)”
FILE “Deep Purple – Live In London CD1.flac” WAVE
TRACK 01 AUDIO
TITLE “Burn”
PERFORMER “Deep Purple”
INDEX 01 00:00:00
TRACK 02 AUDIO
TITLE “Might Just Take Your Life”
PERFORMER “Deep Purple”
INDEX 01 07:46:13
TRACK 03 AUDIO
TITLE “Lay Down, Stay Down”
PERFORMER “Deep Purple”
INDEX 01 13:03:37
TRACK 04 AUDIO
TITLE “Mistreated”
PERFORMER “Deep Purple”
INDEX 01 18:32:62
TRACK 05 AUDIO
TITLE “Smoke on the Water”
PERFORMER “Deep Purple”
INDEX 01 34:01:57

REM GENRE “Hard Rock”
REM DATE 1982
REM DISCID 0C0C0E02
REM COMMENT “ExactAudioCopy v1.0b3”
PERFORMER “Deep Purple”
TITLE “Live in London CD2 (2007, 2CD, 5099950358021)”
FILE “Deep Purple – Live in London CD2.flac” WAVE
TRACK 01 AUDIO
TITLE “You Fool No One”
PERFORMER “Deep Purple”
INDEX 01 00:00:00
TRACK 02 AUDIO
TITLE “Space Truckin'”
PERFORMER “Deep Purple”
INDEX 01 20:23:13


Leave a Reply

Your email address will not be published. Required fields are marked *

Enter the text from the image below
 

This site uses Akismet to reduce spam. Learn how your comment data is processed.