Deep Purple – Live In Japan (Japanese Edition)




Artist: Deep Purple
Year: 1972/1989
Genre: Rock
Notes: Discogs
Add. Notes: Japanese Edition
Cover incl.: Yes
Encoder: FLAC
Bitrate: ~900 kBit/s (44.1 kHz/16 Bit/s)
Log & Cue incl.: Yes
Size: 529 MB
Password: “slam” (without ” “)


All Downloads/Hosters are compatible

Download 1
KatFile.com
Rapidgator.net
Turbobit.net
FileFactory.com
Download 2
KatFile.com
Rapidgator.net
Turbobit.net
FileFactory.com

Tracklist:

1. Highway Star
2. Child In Time 
3. Smoke On The Water
4. The Mule 
5. Strange Kind Of Woman
6. Lazy 
7. Space Truckin' 

EAC-Log, CUE-Sheed & NFO:

Click to open spoiler
Exact Audio Copy V1.0 beta 3 from 29. August 2011

EAC extraction logfile from 26. March 2014, 20:10

Deep Purple / Live In Japan

Used drive : PLEXTOR DVDR PX-L890SA Adapter: 1 ID: 0

Read mode : Secure
Utilize accurate stream : Yes
Defeat audio cache : Yes
Make use of C2 pointers : No

Read offset correction : 6
Overread into Lead-In and Lead-Out : No
Fill up missing offset samples with silence : Yes
Delete leading and trailing silent blocks : No
Null samples used in CRC calculations : Yes
Used interface : Native Win32 interface for Win NT & 2000

Used output format : User Defined Encoder
Selected bitrate : 768 kBit/s
Quality : High
Add ID3 tag : No
Command line compressor : G:\Program Files\Exact Audio Copy\FLAC\FLAC.EXE
Additional command line options : -V -8 -T “Date=%year%” -T “Genre=%genre%” %source%

TOC of the extracted CD

Track | Start | Length | Start sector | End sector
———————————————————
1 | 0:00.00 | 6:49.12 | 0 | 30686
2 | 6:49.12 | 12:24.30 | 30687 | 86516
3 | 19:13.42 | 7:31.43 | 86517 | 120384
4 | 26:45.10 | 9:49.32 | 120385 | 164591
5 | 36:34.42 | 9:34.70 | 164592 | 207711
6 | 46:09.37 | 10:52.13 | 207712 | 256624
7 | 57:01.50 | 19:55.47 | 256625 | 346296

Range status and errors

Selected range

Filename H:\MUSIC\Deep Purple\1972. Deep Purple – Live In Japan (Warner 20P2-2606, Japan)\Deep Purple – Live In Japan.wav

Peak level 100.0 %
Extraction speed 7.0 X
Range quality 100.0 %
Test CRC 480B8290
Copy CRC 480B8290
Copy OK

No errors occurred

AccurateRip summary

Track 1 cannot be verified as accurate (confidence 12) [54D3E4DF], AccurateRip returned [D93C4168] (AR v2)
Track 2 cannot be verified as accurate (confidence 12) [5DC77DEC], AccurateRip returned [7E563407] (AR v2)
Track 3 cannot be verified as accurate (confidence 12) [D35E1C47], AccurateRip returned [04B7204C] (AR v2)
Track 4 cannot be verified as accurate (confidence 12) [91398508], AccurateRip returned [F1EB8AF0] (AR v2)
Track 5 cannot be verified as accurate (confidence 12) [E8266CE8], AccurateRip returned [AAA08414] (AR v2)
Track 6 cannot be verified as accurate (confidence 12) [29B16322], AccurateRip returned [EBCCF0E7] (AR v2)
Track 7 cannot be verified as accurate (confidence 12) [7954A140], AccurateRip returned [AA85DF02] (AR v2)

No tracks could be verified as accurate
You may have a different pressing from the one(s) in the database

End of status report

==== Log checksum 460F48D8451E4F0BC295A6D34A3F551D01A5B643B2CAEBA286A418EE0A4692C4 ====

REM GENRE “Hard Rock”
REM DATE 1972
REM DISCID 51120907
REM COMMENT “ExactAudioCopy v1.0b3”
PERFORMER “Deep Purple”
TITLE “Live In Japan (1989, 20P2-2606)”
FILE “Deep Purple – Live In Japan.flac” WAVE
TRACK 01 AUDIO
TITLE “Highway Star”
PERFORMER “Deep Purple”
INDEX 01 00:00:00
TRACK 02 AUDIO
TITLE “Child In Time”
PERFORMER “Deep Purple”
INDEX 00 06:48:62
INDEX 01 06:49:12
TRACK 03 AUDIO
TITLE “Smoke On The Water”
PERFORMER “Deep Purple”
INDEX 00 19:12:30
INDEX 01 19:13:42
TRACK 04 AUDIO
TITLE “The Mule”
PERFORMER “Deep Purple”
INDEX 00 26:43:72
INDEX 01 26:45:10
TRACK 05 AUDIO
TITLE “Strange Kind Of Woman”
PERFORMER “Deep Purple”
INDEX 00 36:33:30
INDEX 01 36:34:42
TRACK 06 AUDIO
TITLE “Lazy”
PERFORMER “Deep Purple”
INDEX 01 46:09:37
TRACK 07 AUDIO
TITLE “Space Truckin'”
PERFORMER “Deep Purple”
INDEX 00 57:00:37
INDEX 01 57:01:50


Leave a Reply

Your email address will not be published. Required fields are marked *

Enter the text from the image below
 

This site uses Akismet to reduce spam. Learn how your comment data is processed.