Deep Purple – Live In Europe, 1993




No Cover available

Artist: Deep Purple
Year: 2006
Genre: Rock
Notes: Discogs
Add. Notes:
Watch Songs on: YouTube
Cover incl.: Yes
Encoder: FLAC
Bitrate: ~1000 kBit/s (44.1 kHz/16 Bit/s)
Log & Cue incl.: Yes/Yes
Size: 1791,9 MB
Password: “slam” (without ” “)


All Downloads/Hosters are compatible

Download 1
KatFile.com
Turbobit.net
Rapidgator.net
FileFactory.com
Download 2
KatFile.com
Turbobit.net
Rapidgator.net
FileFactory.com

Tracklist:

Schleyer Halle, Stuttgart - 16th October, 1993
CD 1
1 Highway Star 5:33
2 Black Night 6:04
3 Talk About Love 4:11
4 A Twist In The Tale 4:33
5 Perfect Strangers 6:43
6 The Mule 2:13
7 Beethoven's Ninth 8:06
8 Knocking At Your Back Door 8:31
9 Anyone's Daughter 4:05
10 Child In Time 10:14
11 Anya 12:32

CD 2
1 The Battle Rages On 6:14
2 Lazy 8:42
3 In The Hall Of The Mountain King 1:44
4 Space Truckin' 2:23
5 Woman From Tokyo 5:48
6 Paint It Black 4:50
7 Speed King 6:55
8 Hush 3:34
9 Smoke On The Water 10:54

NEC, Birmingham - 9th November, 1993
CD 3
1 Highway Star 8:13
2 Black Night 5:20
3 Talk About Love 4:17
4 A Twist In The Tail 4:37
5 Perfect Strangers 6:50
6 Beethoven 2:52
7 Jon's Keyboard Solo 6:14
8 Knockin' At Your Back Door 8:48
9 Anyone's Daughter 3:47

CD 4
1 Child In Time 10:12
2 Anya 7:17
3 The Battle Rages On 6:24
4 Lazy & Drum Solo 7:21
5 Space Truckin' 2:42
6 Woman From Tokyo 2:22
7 Paint It Black 7:04
Encore:
8 Hush 3:22
9 Smoke On The Water 9:42

EAC-Log, CUE-Sheed & NFO:

Click to open spoiler
Exact Audio Copy V1.0 beta 3 from 29. August 2011

EAC extraction logfile from 11. July 2014, 11:34

Deep Purple / Live At The Nec CD1

Used drive : ATAPI iHAS124 B Adapter: 1 ID: 0

Read mode : Secure
Utilize accurate stream : Yes
Defeat audio cache : Yes
Make use of C2 pointers : No

Read offset correction : 6
Overread into Lead-In and Lead-Out : No
Fill up missing offset samples with silence : Yes
Delete leading and trailing silent blocks : No
Null samples used in CRC calculations : Yes
Used interface : Installed external ASPI interface

Used output format : User Defined Encoder
Selected bitrate : 128 kBit/s
Quality : High
Add ID3 tag : Yes
Command line compressor : C:\Program Files (x86)\Exact Audio Copy\Flac\flac.exe
Additional command line options : -V -8 -T “Date=%year%” -T “Genre=%genre%” %source%

TOC of the extracted CD

Track | Start | Length | Start sector | End sector
———————————————————
1 | 0:00.00 | 8:13.18 | 0 | 36992
2 | 8:13.18 | 5:19.70 | 36993 | 60987
3 | 13:33.13 | 4:16.68 | 60988 | 80255
4 | 17:50.06 | 4:37.37 | 80256 | 101067
5 | 22:27.43 | 6:48.41 | 101068 | 131708
6 | 29:16.09 | 2:51.74 | 131709 | 144607
7 | 32:08.08 | 6:14.02 | 144608 | 172659
8 | 38:22.10 | 8:48.47 | 172660 | 212306
9 | 47:10.57 | 3:47.51 | 212307 | 229382

Range status and errors

Selected range

Filename G:\CD\Deep Purple – Live At The Nec CD1.wav

Peak level 96.6 %
Extraction speed 5.6 X
Range quality 100.0 %
Test CRC EDAD5785
Copy CRC EDAD5785
Copy OK

No errors occurred

AccurateRip summary

Track 1 accurately ripped (confidence 18) [391FC685] (AR v2)
Track 2 accurately ripped (confidence 18) [DE27183E] (AR v2)
Track 3 accurately ripped (confidence 18) [715F862F] (AR v2)
Track 4 accurately ripped (confidence 18) [63253068] (AR v2)
Track 5 accurately ripped (confidence 18) [1BD8B4C1] (AR v2)
Track 6 accurately ripped (confidence 18) [65DF9B2A] (AR v2)
Track 7 accurately ripped (confidence 18) [53CC3CB5] (AR v2)
Track 8 accurately ripped (confidence 18) [1C5CF482] (AR v2)
Track 9 accurately ripped (confidence 18) [79C6A094] (AR v2)

All tracks accurately ripped

End of status report

—- CUETools DB Plugin V2.1.3

[CTDB TOCID: aRkFAmRPZMgfUWTCY7WVNjxKsf0-] found, Submit result: aRkFAmRPZMgfUWTCY7WVNjxKsf0- has been confirmed
[a09da15b] (30/30) Accurately ripped

==== Log checksum 82F4E3A939B9E0B46DAA70F743A2B628B468B39A2B53FE17EAE311300F507AF0 ====

Exact Audio Copy V1.0 beta 3 from 29. August 2011

EAC extraction logfile from 11. July 2014, 11:57

Deep Purple / Live At The Nec CD2

Used drive : ATAPI iHAS124 B Adapter: 1 ID: 0

Read mode : Secure
Utilize accurate stream : Yes
Defeat audio cache : Yes
Make use of C2 pointers : No

Read offset correction : 6
Overread into Lead-In and Lead-Out : No
Fill up missing offset samples with silence : Yes
Delete leading and trailing silent blocks : No
Null samples used in CRC calculations : Yes
Used interface : Installed external ASPI interface

Used output format : User Defined Encoder
Selected bitrate : 128 kBit/s
Quality : High
Add ID3 tag : Yes
Command line compressor : C:\Program Files (x86)\Exact Audio Copy\Flac\flac.exe
Additional command line options : -V -8 -T “Date=%year%” -T “Genre=%genre%” %source%

TOC of the extracted CD

Track | Start | Length | Start sector | End sector
———————————————————
1 | 0:00.00 | 10:12.66 | 0 | 45965
2 | 10:12.66 | 7:17.12 | 45966 | 78752
3 | 17:30.03 | 6:24.01 | 78753 | 107553
4 | 23:54.04 | 7:21.34 | 107554 | 140662
5 | 31:15.38 | 2:43.30 | 140663 | 152917
6 | 33:58.68 | 2:22.57 | 152918 | 163624
7 | 36:21.50 | 7:05.02 | 163625 | 195501
8 | 43:26.52 | 3:22.33 | 195502 | 210684
9 | 46:49.10 | 9:42.27 | 210685 | 254361

Range status and errors

Selected range

Filename G:\CD\Deep Purple – Live At The Nec CD2.wav

Peak level 96.6 %
Extraction speed 5.8 X
Range quality 100.0 %
Test CRC 41D2DBC0
Copy CRC 41D2DBC0
Copy OK

No errors occurred

AccurateRip summary

Track 1 accurately ripped (confidence 18) [BB1BA861] (AR v2)
Track 2 accurately ripped (confidence 18) [178E2F82] (AR v2)
Track 3 accurately ripped (confidence 18) [339D2208] (AR v2)
Track 4 accurately ripped (confidence 18) [621B962F] (AR v2)
Track 5 accurately ripped (confidence 18) [35B6BF39] (AR v2)
Track 6 accurately ripped (confidence 18) [A868D135] (AR v2)
Track 7 accurately ripped (confidence 18) [9148C1EE] (AR v2)
Track 8 accurately ripped (confidence 18) [90CA05C8] (AR v2)
Track 9 accurately ripped (confidence 18) [42F11CF2] (AR v2)

All tracks accurately ripped

End of status report

—- CUETools DB Plugin V2.1.3

[CTDB TOCID: OaQfNmnl9n9M6ZnV3BLN7_52VDk-] found, Submit result: OaQfNmnl9n9M6ZnV3BLN7_52VDk- has been confirmed
[5ccec3a2] (30/30) Accurately ripped

==== Log checksum 0C7C2211732E0E7D83D203A0A7700A3494A92DD5419622F39ECD4235923F6AEF ====

Exact Audio Copy V1.0 beta 3 from 29. August 2011

EAC extraction logfile from 11. July 2014, 10:35

Deep Purple / Live in Stuttgart CD1

Used drive : ATAPI iHAS124 B Adapter: 1 ID: 0

Read mode : Secure
Utilize accurate stream : Yes
Defeat audio cache : Yes
Make use of C2 pointers : No

Read offset correction : 6
Overread into Lead-In and Lead-Out : No
Fill up missing offset samples with silence : Yes
Delete leading and trailing silent blocks : No
Null samples used in CRC calculations : Yes
Used interface : Installed external ASPI interface

Used output format : User Defined Encoder
Selected bitrate : 128 kBit/s
Quality : High
Add ID3 tag : Yes
Command line compressor : C:\Program Files (x86)\Exact Audio Copy\Flac\flac.exe
Additional command line options : -V -8 -T “Date=%year%” -T “Genre=%genre%” %source%

TOC of the extracted CD

Track | Start | Length | Start sector | End sector
———————————————————
1 | 0:00.00 | 7:21.18 | 0 | 33092
2 | 7:21.18 | 6:16.13 | 33093 | 61305
3 | 13:37.31 | 4:22.33 | 61306 | 80988
4 | 17:59.64 | 4:38.19 | 80989 | 101857
5 | 22:38.08 | 6:56.64 | 101858 | 133121
6 | 29:34.72 | 2:20.06 | 133122 | 143627
7 | 31:55.03 | 8:08.56 | 143628 | 180283
8 | 40:03.59 | 9:40.66 | 180284 | 223849
9 | 49:44.50 | 4:16.71 | 223850 | 243120
10 | 54:01.46 | 11:10.11 | 243121 | 293381
11 | 65:11.57 | 12:14.63 | 293382 | 348494

Range status and errors

Selected range

Filename G:\CD\Deep Purple – Live in Stuttgart CD1.wav

Peak level 96.6 %
Extraction speed 6.7 X
Range quality 100.0 %
Test CRC FFECBBE8
Copy CRC FFECBBE8
Copy OK

No errors occurred

AccurateRip summary

Track 1 accurately ripped (confidence 20) [A28F609A] (AR v2)
Track 2 accurately ripped (confidence 21) [D46026DB] (AR v2)
Track 3 accurately ripped (confidence 20) [AD2FB41C] (AR v2)
Track 4 accurately ripped (confidence 20) [93EFCF68] (AR v2)
Track 5 accurately ripped (confidence 21) [63014792] (AR v2)
Track 6 accurately ripped (confidence 21) [0D072415] (AR v2)
Track 7 accurately ripped (confidence 21) [D8C66862] (AR v2)
Track 8 accurately ripped (confidence 21) [7C9F66DA] (AR v2)
Track 9 accurately ripped (confidence 21) [0619E183] (AR v2)
Track 10 accurately ripped (confidence 21) [B4C12B15] (AR v2)
Track 11 accurately ripped (confidence 21) [7BD1BCB4] (AR v2)

All tracks accurately ripped

End of status report

—- CUETools DB Plugin V2.1.3

[CTDB TOCID: SyVkC.LgdgdmEszh2UEWekfjxlk-] found, Submit result: SyVkC.LgdgdmEszh2UEWekfjxlk- has been confirmed
[daeec07a] (39/40) Accurately ripped
[37f6eafe] (01/40) No match

==== Log checksum 62A2B4ED0CEC1504392E661C31AB83E51DCA389451EA3A4DD87B19DB68F34B2B ====

Exact Audio Copy V1.0 beta 3 from 29. August 2011

EAC extraction logfile from 11. July 2014, 11:13

Deep Purple / Live in Stuttgart CD2

Used drive : ATAPI iHAS124 B Adapter: 1 ID: 0

Read mode : Secure
Utilize accurate stream : Yes
Defeat audio cache : Yes
Make use of C2 pointers : No

Read offset correction : 6
Overread into Lead-In and Lead-Out : No
Fill up missing offset samples with silence : Yes
Delete leading and trailing silent blocks : No
Null samples used in CRC calculations : Yes
Used interface : Installed external ASPI interface

Used output format : User Defined Encoder
Selected bitrate : 128 kBit/s
Quality : High
Add ID3 tag : Yes
Command line compressor : C:\Program Files (x86)\Exact Audio Copy\Flac\flac.exe
Additional command line options : -V -8 -T “Date=%year%” -T “Genre=%genre%” %source%

TOC of the extracted CD

Track | Start | Length | Start sector | End sector
———————————————————
1 | 0:00.00 | 6:38.13 | 0 | 29862
2 | 6:38.13 | 8:55.43 | 29863 | 70030
3 | 15:33.56 | 1:54.64 | 70031 | 78644
4 | 17:28.45 | 2:26.50 | 78645 | 89644
5 | 19:55.20 | 2:09.06 | 89645 | 99325
6 | 22:04.26 | 5:35.35 | 99326 | 124485
7 | 27:39.61 | 7:25.30 | 124486 | 157890
8 | 35:05.16 | 3:33.17 | 157891 | 173882
9 | 38:38.33 | 12:28.33 | 173883 | 230015

Range status and errors

Selected range

Filename G:\CD\Deep Purple – Live in Stuttgart CD2.wav

Peak level 96.6 %
Extraction speed 5.6 X
Range quality 100.0 %
Test CRC 2737B6C1
Copy CRC 2737B6C1
Copy OK

No errors occurred

AccurateRip summary

Track 1 accurately ripped (confidence 20) [81783AC4] (AR v2)
Track 2 accurately ripped (confidence 20) [322CB7F1] (AR v2)
Track 3 accurately ripped (confidence 20) [C34C75FC] (AR v2)
Track 4 accurately ripped (confidence 20) [EFC60190] (AR v2)
Track 5 accurately ripped (confidence 20) [7DBE64C8] (AR v2)
Track 6 accurately ripped (confidence 20) [31A839EC] (AR v2)
Track 7 accurately ripped (confidence 20) [265537FB] (AR v2)
Track 8 accurately ripped (confidence 21) [15EB619A] (AR v2)
Track 9 accurately ripped (confidence 21) [5D422323] (AR v2)

All tracks accurately ripped

End of status report

—- CUETools DB Plugin V2.1.3

[CTDB TOCID: w3ZDHocfEA5uKK7fUmh8LPwSndE-] found, Submit result: w3ZDHocfEA5uKK7fUmh8LPwSndE- has been confirmed
[941b4765] (43/43) Accurately ripped

==== Log checksum A178E5A002AC6AAD2297F780D15A856ADD3CD2B234F2ADC96A6E12972624975A ====

REM GENRE “Hard Rock”
REM DATE 2006
REM DISCID 770BF209
REM COMMENT “ExactAudioCopy v1.0b3”
PERFORMER “Deep Purple”
TITLE “Live At The Nec CD1 (2006, 4CD, 82876759042)”
FILE “Deep Purple – Live At The Nec CD1.flac” WAVE
TRACK 01 AUDIO
TITLE “Highway Star”
PERFORMER “Deep Purple”
ISRC JPBV09403072
INDEX 01 00:00:00
TRACK 02 AUDIO
TITLE “Black Night”
PERFORMER “Deep Purple”
ISRC JPBV09403073
INDEX 01 08:13:18
TRACK 03 AUDIO
TITLE “Talk About Love”
PERFORMER “Deep Purple”
ISRC JPBV09403074
INDEX 00 13:15:30
INDEX 01 13:33:13
TRACK 04 AUDIO
TITLE “A Twist In The Tail”
PERFORMER “Deep Purple”
ISRC JPBV09403075
INDEX 00 17:42:64
INDEX 01 17:50:06
TRACK 05 AUDIO
TITLE “Perfect Strangers”
PERFORMER “Deep Purple”
ISRC JPBV09403076
INDEX 00 22:18:04
INDEX 01 22:27:43
TRACK 06 AUDIO
TITLE “Beethoven”
PERFORMER “Deep Purple”
ISRC JPBV09403077
INDEX 00 29:07:42
INDEX 01 29:16:09
TRACK 07 AUDIO
TITLE “Jon’s Keyboard Solo”
PERFORMER “Deep Purple”
ISRC JPBV09403078
INDEX 01 32:08:08
TRACK 08 AUDIO
TITLE “Knockin’ At Your Back Door”
PERFORMER “Deep Purple”
ISRC JPBV09403079
INDEX 00 38:07:70
INDEX 01 38:22:10
TRACK 09 AUDIO
TITLE “Anyone’s Daughter”
PERFORMER “Deep Purple”
ISRC JPBV09403080
INDEX 00 46:26:59
INDEX 01 47:10:57

REM GENRE “Hard Rock”
REM DATE 2006
REM DISCID 6A0D3F09
REM COMMENT “ExactAudioCopy v1.0b3”
PERFORMER “Deep Purple”
TITLE “Live At The Nec CD2 (2006, 4CD, 82876759042)”
FILE “Deep Purple – Live At The Nec CD2.flac” WAVE
TRACK 01 AUDIO
TITLE “Child In Time”
PERFORMER “Deep Purple”
ISRC JPBV09403081
INDEX 01 00:00:00
TRACK 02 AUDIO
TITLE “Anya”
PERFORMER “Deep Purple”
ISRC JPBV09403082
INDEX 01 10:12:66
TRACK 03 AUDIO
TITLE “The Battle Rages On”
PERFORMER “Deep Purple”
ISRC JPBV09403083
INDEX 00 17:02:01
INDEX 01 17:30:03
TRACK 04 AUDIO
TITLE “Lazy & Drum Solo”
PERFORMER “Deep Purple”
ISRC JPBV09403084
INDEX 00 23:34:00
INDEX 01 23:54:04
TRACK 05 AUDIO
TITLE “Space Truckin'”
PERFORMER “Deep Purple”
ISRC JPBV89400078
INDEX 00 30:44:23
INDEX 01 31:15:38
TRACK 06 AUDIO
TITLE “Woman From Tokyo”
PERFORMER “Deep Purple”
ISRC JPBV09403087
INDEX 01 33:58:68
TRACK 07 AUDIO
TITLE “Paint It Black”
PERFORMER “Deep Purple”
ISRC JPBV09403088
INDEX 01 36:21:50
TRACK 08 AUDIO
TITLE “Hush”
PERFORMER “Deep Purple”
ISRC JPBV09403089
INDEX 00 42:31:55
INDEX 01 43:26:52
TRACK 09 AUDIO
TITLE “Smoke On The Water”
PERFORMER “Deep Purple”
ISRC JPBV09403090
INDEX 01 46:49:10

REM GENRE “Hard Rock”
REM DATE 2006
REM DISCID 9A12260B
REM COMMENT “ExactAudioCopy v1.0b3”
PERFORMER “Deep Purple”
TITLE “Live in Stuttgart CD1 (2006, 4CD, 82876759042)”
FILE “Deep Purple – Live in Stuttgart CD1.flac” WAVE
TRACK 01 AUDIO
TITLE “Intro / Highway Star”
PERFORMER “Deep Purple”
ISRC JPBV09319308
INDEX 01 00:00:00
TRACK 02 AUDIO
TITLE “Black Night”
PERFORMER “Deep Purple”
ISRC JPBV09319309
INDEX 01 07:21:18
TRACK 03 AUDIO
TITLE “Talk About Love”
PERFORMER “Deep Purple”
ISRC JPBV09319310
INDEX 00 13:02:67
INDEX 01 13:37:31
TRACK 04 AUDIO
TITLE “A Twist In The Tale”
PERFORMER “Deep Purple”
ISRC JPBV09319311
INDEX 00 17:42:59
INDEX 01 17:59:64
TRACK 05 AUDIO
TITLE “Perfect Strangers”
PERFORMER “Deep Purple”
ISRC JPBV09319312
INDEX 00 22:18:04
INDEX 01 22:38:08
TRACK 06 AUDIO
TITLE “The Mule”
PERFORMER “Deep Purple”
ISRC JPBV09319313
INDEX 00 29:19:57
INDEX 01 29:34:72
TRACK 07 AUDIO
TITLE “Beethoven’s Ninth”
PERFORMER “Deep Purple”
ISRC JPBV09319314
INDEX 01 31:55:03
TRACK 08 AUDIO
TITLE “Knocking At Your Back Door”
PERFORMER “Deep Purple”
ISRC JPBV09319315
INDEX 01 40:03:59
TRACK 09 AUDIO
TITLE “Anyone’s Daughter”
PERFORMER “Deep Purple”
ISRC JPBV09319316
INDEX 00 49:06:33
INDEX 01 49:44:50
TRACK 10 AUDIO
TITLE “Child In Time”
PERFORMER “Deep Purple”
ISRC JPBV09319317
INDEX 00 53:36:63
INDEX 01 54:01:46
TRACK 11 AUDIO
TITLE “Anya”
PERFORMER “Deep Purple”
ISRC JPBV09319318
INDEX 01 65:11:57

REM GENRE “Hard Rock”
REM DATE 2006
REM DISCID 5A0BFA09
REM COMMENT “ExactAudioCopy v1.0b3”
PERFORMER “Deep Purple”
TITLE “Live in Stuttgart CD2 (2006, 4CD, 82876759042)”
FILE “Deep Purple – Live in Stuttgart CD2.flac” WAVE
TRACK 01 AUDIO
TITLE “The Battle Rages On”
PERFORMER “Deep Purple”
ISRC JPBV09319319
INDEX 01 00:00:00
TRACK 02 AUDIO
TITLE “Lazy”
PERFORMER “Deep Purple”
ISRC JPBV09319320
INDEX 00 06:14:42
INDEX 01 06:38:13
TRACK 03 AUDIO
TITLE “In The Hall Of The Mountain King”
PERFORMER “Deep Purple”
ISRC JPBV09319321
INDEX 00 15:23:38
INDEX 01 15:33:56
TRACK 04 AUDIO
TITLE “Space Truckin'”
PERFORMER “Deep Purple”
ISRC JPBV09319322
INDEX 01 17:28:45
TRACK 05 AUDIO
TITLE “Woman From Tokyo”
PERFORMER “Deep Purple”
ISRC JPBV09319323
INDEX 01 19:55:20
TRACK 06 AUDIO
TITLE “Paint It Black”
PERFORMER “Deep Purple”
ISRC JPBV09319324
INDEX 01 22:04:26
TRACK 07 AUDIO
TITLE “Speed King”
PERFORMER “Deep Purple”
ISRC JPBV09319325
INDEX 00 27:10:17
INDEX 01 27:39:61
TRACK 08 AUDIO
TITLE “Hush”
PERFORMER “Deep Purple”
ISRC JPBV09319326
INDEX 00 34:57:42
INDEX 01 35:05:16
TRACK 09 AUDIO
TITLE “Smoke On The Water”
PERFORMER “Deep Purple”
ISRC JPBV09319327
INDEX 01 38:38:33


Leave a Reply

Your email address will not be published. Required fields are marked *

Enter the text from the image below
 

This site uses Akismet to reduce spam. Learn how your comment data is processed.