Deep Purple – Live At The NEC 1993 (Remastered)




No Cover available

Artist: Deep Purple
Year: 1993/2013
Genre: Rock
Notes: Discogs
Add. Notes: Remastered
Watch Songs on: YouTube
Cover incl.: Yes
Encoder: FLAC
Bitrate: ~1000 kBit/s (44.1 kHz/16 Bit/s)
Log & Cue incl.: Yes/Yes
Size: 814,8 MB
Password: “slam” (without ” “)


All Downloads/Hosters are compatible

Download 1
KatFile.com
Turbobit.net
Rapidgator.net
FileFactory.com
Download 2
KatFile.com
Turbobit.net
Rapidgator.net
FileFactory.com

Tracklist:

CD 1
1 Highway Star 8:13
2 Black Night 5:20
3 Talk About Love 4:17
4 A Twist In The Tale 4:37
5 Perfect Strangers 6:50
6 Beethoven 2:52
7 Jon's Keyboard Solo 6:14
8 Knockin' At Your Back Door 8:48
9 Anyone's Daughter 3:47

CD 2
1 Child In Time 10:12
2 Anya 7:17
3 The Battle Rages On 6:24
4 Lazy/Drum Solo 7:21
5 Space Truckin' 2:42
6 Woman From Tokyo 2:22
7 Paint It Black 7:04
8 Hush 3:22
9 Smoke On The Water 9:42

EAC-Log, CUE-Sheed & NFO:

Click to open spoiler
Exact Audio Copy V1.0 beta 3 from 29. August 2011

EAC extraction logfile from 30. November 2013, 19:50

Deep Purple / Live In Birmingham 1993. NEC 1993 CD1

Used drive : ATAPI iHAS124 B Adapter: 2 ID: 0

Read mode : Secure
Utilize accurate stream : Yes
Defeat audio cache : Yes
Make use of C2 pointers : No

Read offset correction : 6
Overread into Lead-In and Lead-Out : No
Fill up missing offset samples with silence : Yes
Delete leading and trailing silent blocks : No
Null samples used in CRC calculations : Yes
Used interface : Native Win32 interface for Win NT & 2000

Used output format : User Defined Encoder
Selected bitrate : 1024 kBit/s
Quality : High
Add ID3 tag : No
Command line compressor : C:\Program Files (x86)\Exact Audio Copy\FLAC\FLAC.EXE
Additional command line options : -8 -V -T “ARTIST=%artist%” -T “TITLE=%title%” -T “ALBUM=%albumtitle%” -T “DATE=%year%” -T “TRACKNUMBER=%tracknr%” -T “GENRE=%genre%” -T “PERFORMER=%albuminterpret%” -T “COMPOSER=%composer%” %haslyrics%–tag-from-file=LYRICS=”%lyricsfile%”%haslyrics% -T “ALBUMARTIST=%albumartist%” -T “DISCNUMBER=%cdnumber%” -T “TOTALDISCS=%totalcds%” -T “TOTALTRACKS=%numtracks%” -T “COMMENT=%comment%” %source% -o %dest%

TOC of the extracted CD

Track | Start | Length | Start sector | End sector
———————————————————
1 | 0:00.00 | 8:13.38 | 0 | 37012
2 | 8:13.38 | 5:20.01 | 37013 | 61013
3 | 13:33.39 | 4:17.03 | 61014 | 80291
4 | 17:50.42 | 4:36.44 | 80292 | 101035
5 | 22:27.11 | 6:48.31 | 101036 | 131666
6 | 29:15.42 | 2:51.61 | 131667 | 144552
7 | 32:07.28 | 6:14.54 | 144553 | 172656
8 | 38:22.07 | 8:47.70 | 172657 | 212251
9 | 47:10.02 | 3:45.34 | 212252 | 229160

Range status and errors

Selected range

Filename G:\CD\Deep Purple – NEC 1993 CD1.wav

Peak level 96.6 %
Extraction speed 5.6 X
Range quality 100.0 %
Test CRC 577573B9
Copy CRC 577573B9
Copy OK

No errors occurred

AccurateRip summary

Track 1 not present in database
Track 2 not present in database
Track 3 not present in database
Track 4 not present in database
Track 5 not present in database
Track 6 not present in database
Track 7 not present in database
Track 8 not present in database
Track 9 not present in database

None of the tracks are present in the AccurateRip database

End of status report

==== Log checksum 98C783D71246C617FE20FC8A08E13901A8C4E202B08664B8F43884B742FBF267 ====

Exact Audio Copy V1.0 beta 3 from 29. August 2011

EAC extraction logfile from 30. November 2013, 20:13

Deep Purple / Live In Birmingham 1993. NEC 1993 CD2

Used drive : ATAPI iHAS124 B Adapter: 2 ID: 0

Read mode : Secure
Utilize accurate stream : Yes
Defeat audio cache : Yes
Make use of C2 pointers : No

Read offset correction : 6
Overread into Lead-In and Lead-Out : No
Fill up missing offset samples with silence : Yes
Delete leading and trailing silent blocks : No
Null samples used in CRC calculations : Yes
Used interface : Native Win32 interface for Win NT & 2000

Used output format : User Defined Encoder
Selected bitrate : 1024 kBit/s
Quality : High
Add ID3 tag : No
Command line compressor : C:\Program Files (x86)\Exact Audio Copy\FLAC\FLAC.EXE
Additional command line options : -8 -V -T “ARTIST=%artist%” -T “TITLE=%title%” -T “ALBUM=%albumtitle%” -T “DATE=%year%” -T “TRACKNUMBER=%tracknr%” -T “GENRE=%genre%” -T “PERFORMER=%albuminterpret%” -T “COMPOSER=%composer%” %haslyrics%–tag-from-file=LYRICS=”%lyricsfile%”%haslyrics% -T “ALBUMARTIST=%albumartist%” -T “DISCNUMBER=%cdnumber%” -T “TOTALDISCS=%totalcds%” -T “TOTALTRACKS=%numtracks%” -T “COMMENT=%comment%” %source% -o %dest%

TOC of the extracted CD

Track | Start | Length | Start sector | End sector
———————————————————
1 | 0:00.00 | 10:12.37 | 0 | 45936
2 | 10:12.37 | 7:17.12 | 45937 | 78723
3 | 17:29.49 | 6:24.54 | 78724 | 107577
4 | 23:54.28 | 7:20.56 | 107578 | 140633
5 | 31:15.09 | 2:43.30 | 140634 | 152888
6 | 33:58.39 | 2:22.57 | 152889 | 163595
7 | 36:21.21 | 7:05.02 | 163596 | 195472
8 | 43:26.23 | 3:22.33 | 195473 | 210655
9 | 46:48.56 | 9:40.64 | 210656 | 254219

Range status and errors

Selected range

Filename G:\CD\Deep Purple – NEC 1993 CD2.wav

Peak level 96.6 %
Extraction speed 5.8 X
Range quality 100.0 %
Test CRC C23F18B3
Copy CRC C23F18B3
Copy OK

No errors occurred

AccurateRip summary

Track 1 not present in database
Track 2 not present in database
Track 3 not present in database
Track 4 not present in database
Track 5 not present in database
Track 6 not present in database
Track 7 not present in database
Track 8 not present in database
Track 9 not present in database

None of the tracks are present in the AccurateRip database

End of status report

==== Log checksum EEE472BFEC73384D1AE017B9FC3F6133D900B7AD0B1707EB860A4D2F68D90AE1 ====

REM GENRE “Hard Rock”
REM DATE 2006
REM DISCID 7E0BEF09
REM COMMENT “ExactAudioCopy v1.0b3”
PERFORMER “Deep Purple”
TITLE “Live In Birmingham 1993. NEC 1993 CD1 (2013, 2CD, HNECD025D)”
FILE “Deep Purple – NEC 1993 CD1.flac” WAVE
TRACK 01 AUDIO
TITLE “Highway Star”
PERFORMER “Deep Purple”
ISRC JPBV09403072
INDEX 01 00:00:00
TRACK 02 AUDIO
TITLE “Black Night”
PERFORMER “Deep Purple”
ISRC JPBV09403073
INDEX 01 08:13:38
TRACK 03 AUDIO
TITLE “Talk About Love”
PERFORMER “Deep Purple”
ISRC JPBV09403074
INDEX 01 13:33:39
TRACK 04 AUDIO
TITLE “A Twist In The Tail”
PERFORMER “Deep Purple”
ISRC JPBV09403075
INDEX 01 17:50:42
TRACK 05 AUDIO
TITLE “Perfect Strangers”
PERFORMER “Deep Purple”
ISRC JPBV09403076
INDEX 01 22:27:11
TRACK 06 AUDIO
TITLE “Beethoven”
PERFORMER “Deep Purple”
ISRC JPBV09403077
INDEX 01 29:15:42
TRACK 07 AUDIO
TITLE “Jon’s Keyboard Solo”
PERFORMER “Deep Purple”
ISRC JPBV09403078
INDEX 01 32:07:28
TRACK 08 AUDIO
TITLE “Knockin’ At Your Back Door”
PERFORMER “Deep Purple”
ISRC JPBV09403079
INDEX 01 38:22:07
TRACK 09 AUDIO
TITLE “Anyone’s Daughter”
PERFORMER “Deep Purple”
ISRC JPBV09403080
INDEX 01 47:10:02

REM GENRE “Hard Rock”
REM DATE 2006
REM DISCID 680D3D09
REM COMMENT “ExactAudioCopy v1.0b3”
PERFORMER “Deep Purple”
TITLE “Live In Birmingham 1993. NEC 1993 CD2 (2013, 2CD, HNECD025D)”
FILE “Deep Purple – NEC 1993 CD2.flac” WAVE
TRACK 01 AUDIO
TITLE “Child In Time”
PERFORMER “Deep Purple”
ISRC JPBV09403081
INDEX 01 00:00:00
TRACK 02 AUDIO
TITLE “Anya”
PERFORMER “Deep Purple”
ISRC JPBV09403082
INDEX 01 10:12:37
TRACK 03 AUDIO
TITLE “The Battle Rages On”
PERFORMER “Deep Purple”
ISRC JPBV09403083
INDEX 01 17:29:49
TRACK 04 AUDIO
TITLE “Lazy & Drum Solo”
PERFORMER “Deep Purple”
ISRC JPBV09403084
INDEX 01 23:54:28
TRACK 05 AUDIO
TITLE “Space Truckin'”
PERFORMER “Deep Purple”
ISRC JPBV09403086
INDEX 01 31:15:09
TRACK 06 AUDIO
TITLE “Woman From Tokyo”
PERFORMER “Deep Purple”
ISRC JPBV09403087
INDEX 01 33:58:39
TRACK 07 AUDIO
TITLE “Paint It Black”
PERFORMER “Deep Purple”
ISRC JPBV09403088
INDEX 01 36:21:21
TRACK 08 AUDIO
TITLE “Hush”
PERFORMER “Deep Purple”
ISRC JPBV09403089
INDEX 01 43:26:23
TRACK 09 AUDIO
TITLE “Smoke On The Water”
PERFORMER “Deep Purple”
ISRC JPBV09403090
INDEX 01 46:48:56


Leave a Reply

Your email address will not be published. Required fields are marked *

Enter the text from the image below
 

This site uses Akismet to reduce spam. Learn how your comment data is processed.