Deep Purple – Live At The California Jam 1974




No Cover available

Artist: Deep Purple
Year: 2005
Genre: Rock
Notes: Discogs
Add. Notes:
Watch Songs on: YouTube
Cover incl.: Yes
Encoder: FLAC
Bitrate: ~900 kBit/s (44.1 kHz/16 Bit/s)
Log & Cue incl.: Yes/Yes
Size: 563,6 MB
Password: “slam” (without ” “)


All Downloads/Hosters are compatible

Download 1
KatFile.com
Turbobit.net
FileFactory.com
Rapidgator.net
Download 2
KatFile.com
Turbobit.net
FileFactory.com
Rapidgator.net

Tracklist:

1 Burn 
2 Might Just Take Your Live 
3 Lay Down, Stay Down 
4 Mistreated 
5 Smoke On The Water 
6 You Fool No One 
7 Space Truckin'

EAC-Log, CUE-Sheed & NFO:

Click to open spoiler
Exact Audio Copy V1.0 beta 3 from 29. August 2011

EAC extraction logfile from 15. July 2014, 17:37

Deep Purple / Live In California 74

Used drive : Optiarc BD RW BD-5300S Adapter: 0 ID: 0

Read mode : Secure
Utilize accurate stream : Yes
Defeat audio cache : Yes
Make use of C2 pointers : No

Read offset correction : 6
Overread into Lead-In and Lead-Out : No
Fill up missing offset samples with silence : Yes
Delete leading and trailing silent blocks : No
Null samples used in CRC calculations : Yes
Used interface : Installed external ASPI interface

Used output format : User Defined Encoder
Selected bitrate : 128 kBit/s
Quality : High
Add ID3 tag : Yes
Command line compressor : C:\Program Files (x86)\Exact Audio Copy\Flac\flac.exe
Additional command line options : -V -8 -T “Date=%year%” -T “Genre=%genre%” %source%

TOC of the extracted CD

Track | Start | Length | Start sector | End sector
———————————————————
1 | 0:00.00 | 6:21.00 | 0 | 28574
2 | 6:21.00 | 4:58.21 | 28575 | 50945
3 | 11:19.21 | 5:00.69 | 50946 | 73514
4 | 16:20.15 | 10:00.45 | 73515 | 118559
5 | 26:20.60 | 8:47.21 | 118560 | 158105
6 | 35:08.06 | 18:49.72 | 158106 | 242852
7 | 53:58.03 | 25:08.62 | 242853 | 356014

Range status and errors

Selected range

Filename G:\CD\Deep Purple – Live In California 74.wav

Peak level 100.0 %
Extraction speed 3.9 X
Range quality 100.0 %
Test CRC 8581C333
Copy CRC 8581C333
Copy OK

No errors occurred

AccurateRip summary

Track 1 accurately ripped (confidence 1) [BA919193] (AR v2)
Track 2 accurately ripped (confidence 1) [A9FCC20C] (AR v2)
Track 3 accurately ripped (confidence 1) [4FC68ECC] (AR v2)
Track 4 accurately ripped (confidence 1) [A6B4238D] (AR v2)
Track 5 accurately ripped (confidence 1) [93859494] (AR v2)
Track 6 accurately ripped (confidence 1) [A52D5080] (AR v2)
Track 7 accurately ripped (confidence 1) [3E239DBB] (AR v2)

All tracks accurately ripped

End of status report

—- CUETools DB Plugin V2.1.3

[CTDB TOCID: YZgnrkFO6B.webH6i5tk3Rod0Hc-] found, Submit result: YZgnrkFO6B.webH6i5tk3Rod0Hc- has been confirmed
[b0bb96f1] (1/1) Accurately ripped

==== Log checksum A01AEBB0B8A7A730E47843496E4B0F3E5AE68505214155458F610CACB1E8FB3F ====

REM GENRE “Hard Rock”
REM DATE 2005
REM DISCID 4F128A07
REM COMMENT “ExactAudioCopy v1.0b3”
PERFORMER “Deep Purple”
TITLE “Live In California 74 (2005, ER203602)”
FILE “Deep Purple – Live In California 74.flac” WAVE
TRACK 01 AUDIO
TITLE “Burn”
PERFORMER “Deep Purple”
ISRC AUTQ07400520
INDEX 01 00:00:00
TRACK 02 AUDIO
TITLE “Might Just Take Your Life”
PERFORMER “Deep Purple”
ISRC AUTQ07400521
INDEX 01 06:21:00
TRACK 03 AUDIO
TITLE “Lay Down, Stay Down”
PERFORMER “Deep Purple”
ISRC AUTQ07400522
INDEX 01 11:19:21
TRACK 04 AUDIO
TITLE “Mistreated”
PERFORMER “Deep Purple”
ISRC AUTQ07400523
INDEX 01 16:20:15
TRACK 05 AUDIO
TITLE “Smoke On the Water”
PERFORMER “Deep Purple”
ISRC AUTQ07400524
INDEX 01 26:20:60
TRACK 06 AUDIO
TITLE “You Fool No One”
PERFORMER “Deep Purple”
ISRC AUTQ07400525
INDEX 01 35:08:06
TRACK 07 AUDIO
TITLE “Space Truckin'”
PERFORMER “Deep Purple”
ISRC AUTQ07400526
INDEX 01 53:58:03


Leave a Reply

Your email address will not be published. Required fields are marked *

This site uses Akismet to reduce spam. Learn how your comment data is processed.