Deep Purple – Live At Montreux 2011




No Cover available

Artist: Deep Purple
Year: 2011
Genre: Rock
Notes: Discogs
Add. Notes:
Watch Songs on: YouTube
Cover incl.: Yes
Encoder: FLAC
Bitrate: ~1000 kBit/s (44.1 kHz/16 Bit/s)
Log & Cue incl.: Yes/Yes
Size: 799,4 MB
Password: “slam” (without ” “)


All Downloads/Hosters are compatible

Download 1
KatFile.com
Turbobit.net
Rapidgator.net
FileFactory.com
Download 2
KatFile.com
Turbobit.net
Rapidgator.net
FileFactory.com

Tracklist:

CD 1
01 Deep Purple Overture 1:39
02 Highway Star 6:54
03 Hard Lovin' Man 6:09
04 Maybe I'm A Leo 4:30
05 Strange Kind Of Woman 6:20
06 Rapture Of The Deep 5:45
07 Woman From Tokyo 6:19
08 Contact Lost 4:29
09 When A Blind Man Cries 3:50
10 The Well Dressed Guitar 2:50

CD 2
01 Knocking At Your Back Door 5:51
02 Lazy 8:59
03 No One Came 5:40
04 Don Airey Keyboard Solo 5:45
05 Perfect Strangers 6:06
06 Space Truckin' 4:56
07 Smoke On The Water 8:32
08 Hush 8:19
09 Black Night 9:10

EAC-Log, CUE-Sheed & NFO:

Click to open spoiler
Exact Audio Copy V1.0 beta 3 from 29. August 2011

EAC extraction logfile from 26. July 2013, 4:55

Deep Purple / Live at Montreux 2011 CD1

Used drive : ATAPI iHAS124 B Adapter: 2 ID: 0

Read mode : Secure
Utilize accurate stream : Yes
Defeat audio cache : Yes
Make use of C2 pointers : No

Read offset correction : 6
Overread into Lead-In and Lead-Out : No
Fill up missing offset samples with silence : Yes
Delete leading and trailing silent blocks : No
Null samples used in CRC calculations : Yes
Used interface : Native Win32 interface for Win NT & 2000

Used output format : User Defined Encoder
Selected bitrate : 1024 kBit/s
Quality : High
Add ID3 tag : No
Command line compressor : C:\Program Files (x86)\Exact Audio Copy\FLAC\FLAC.EXE
Additional command line options : -8 -V -T “ARTIST=%artist%” -T “TITLE=%title%” -T “ALBUM=%albumtitle%” -T “DATE=%year%” -T “TRACKNUMBER=%tracknr%” -T “GENRE=%genre%” -T “PERFORMER=%albuminterpret%” -T “COMPOSER=%composer%” %haslyrics%–tag-from-file=LYRICS=”%lyricsfile%”%haslyrics% -T “ALBUMARTIST=%albumartist%” -T “DISCNUMBER=%cdnumber%” -T “TOTALDISCS=%totalcds%” -T “TOTALTRACKS=%numtracks%” -T “COMMENT=%comment%” %source% -o %dest%

TOC of the extracted CD

Track | Start | Length | Start sector | End sector
———————————————————
1 | 0:00.00 | 1:39.72 | 0 | 7496
2 | 1:39.72 | 6:54.39 | 7497 | 38585
3 | 8:34.36 | 6:08.65 | 38586 | 66250
4 | 14:43.26 | 4:30.16 | 66251 | 86516
5 | 19:13.42 | 6:19.37 | 86517 | 114978
6 | 25:33.04 | 5:44.60 | 114979 | 140838
7 | 31:17.64 | 6:19.42 | 140839 | 169305
8 | 37:37.31 | 4:28.31 | 169306 | 189436
9 | 42:05.62 | 3:50.00 | 189437 | 206686
10 | 45:55.62 | 2:42.73 | 206687 | 218909

Range status and errors

Selected range

Filename G:\CD\Deep Purple – Live at Montreux 2011 CD1.wav

Peak level 99.6 %
Extraction speed 5.8 X
Range quality 100.0 %
Test CRC 57D1587D
Copy CRC 57D1587D
Copy OK

No errors occurred

AccurateRip summary

Track 1 accurately ripped (confidence 13) [052527D0] (AR v2)
Track 2 accurately ripped (confidence 13) [36C2BCE8] (AR v2)
Track 3 accurately ripped (confidence 13) [708093DF] (AR v2)
Track 4 accurately ripped (confidence 13) [4C00FB42] (AR v2)
Track 5 accurately ripped (confidence 13) [EB8F6D8E] (AR v2)
Track 6 accurately ripped (confidence 13) [1D03019A] (AR v2)
Track 7 accurately ripped (confidence 13) [0C82033B] (AR v2)
Track 8 accurately ripped (confidence 13) [689BD074] (AR v2)
Track 9 accurately ripped (confidence 13) [3FB50A60] (AR v2)
Track 10 accurately ripped (confidence 13) [1681BD27] (AR v2)

All tracks accurately ripped

End of status report

==== Log checksum 661F5E80D8035E82A7B0E250B22DC791EB121202AC7A5AD9762E1DF96D0ECD45 ====

Exact Audio Copy V1.0 beta 3 from 29. August 2011

EAC extraction logfile from 26. July 2013, 5:16

Deep Purple / Live at Montreux 2011 CD2

Used drive : ATAPI iHAS124 B Adapter: 2 ID: 0

Read mode : Secure
Utilize accurate stream : Yes
Defeat audio cache : Yes
Make use of C2 pointers : No

Read offset correction : 6
Overread into Lead-In and Lead-Out : No
Fill up missing offset samples with silence : Yes
Delete leading and trailing silent blocks : No
Null samples used in CRC calculations : Yes
Used interface : Native Win32 interface for Win NT & 2000

Used output format : User Defined Encoder
Selected bitrate : 1024 kBit/s
Quality : High
Add ID3 tag : No
Command line compressor : C:\Program Files (x86)\Exact Audio Copy\FLAC\FLAC.EXE
Additional command line options : -8 -V -T “ARTIST=%artist%” -T “TITLE=%title%” -T “ALBUM=%albumtitle%” -T “DATE=%year%” -T “TRACKNUMBER=%tracknr%” -T “GENRE=%genre%” -T “PERFORMER=%albuminterpret%” -T “COMPOSER=%composer%” %haslyrics%–tag-from-file=LYRICS=”%lyricsfile%”%haslyrics% -T “ALBUMARTIST=%albumartist%” -T “DISCNUMBER=%cdnumber%” -T “TOTALDISCS=%totalcds%” -T “TOTALTRACKS=%numtracks%” -T “COMMENT=%comment%” %source% -o %dest%

TOC of the extracted CD

Track | Start | Length | Start sector | End sector
———————————————————
1 | 0:00.00 | 6:07.62 | 0 | 27586
2 | 6:07.62 | 8:45.51 | 27587 | 67012
3 | 14:53.38 | 5:40.06 | 67013 | 92518
4 | 20:33.44 | 5:45.51 | 92519 | 118444
5 | 26:19.20 | 6:05.46 | 118445 | 145865
6 | 32:24.66 | 4:55.63 | 145866 | 168053
7 | 37:20.54 | 8:32.38 | 168054 | 206491
8 | 45:53.17 | 8:18.55 | 206492 | 243896
9 | 54:11.72 | 7:09.48 | 243897 | 276119

Range status and errors

Selected range

Filename G:\CD\Deep Purple – Live at Montreux 2011 CD2.wav

Peak level 99.2 %
Extraction speed 5.9 X
Range quality 100.0 %
Test CRC 8BFECC4D
Copy CRC 8BFECC4D
Copy OK

No errors occurred

AccurateRip summary

Track 1 accurately ripped (confidence 16) [C75A63BF] (AR v2)
Track 2 accurately ripped (confidence 16) [4941E610] (AR v2)
Track 3 accurately ripped (confidence 16) [771B1CA4] (AR v2)
Track 4 accurately ripped (confidence 16) [23282B91] (AR v2)
Track 5 accurately ripped (confidence 16) [315DA651] (AR v2)
Track 6 accurately ripped (confidence 16) [FBD6BB6D] (AR v2)
Track 7 accurately ripped (confidence 16) [84FEE789] (AR v2)
Track 8 accurately ripped (confidence 15) [CA9E55C3] (AR v2)
Track 9 accurately ripped (confidence 16) [59B3F884] (AR v2)

All tracks accurately ripped

End of status report

==== Log checksum 899E94B7652A53FF1CBAB4F6CE5F194BED35EE07EB3D6F7112265B26D9AB7403 ====

REM GENRE “Hard Rock”
REM DATE 2011
REM DISCID 8F0B660A
REM COMMENT “ExactAudioCopy v1.0b3”
PERFORMER “Deep Purple”
TITLE “Live at Montreux 2011 CD1 (2011, 2CD, EDGCD470)”
FILE “Deep Purple – Live at Montreux 2011 CD1.flac” WAVE
TRACK 01 AUDIO
TITLE “Deep Purple Overture”
PERFORMER “Deep Purple”
INDEX 01 00:00:00
TRACK 02 AUDIO
TITLE “Highway star”
PERFORMER “Deep Purple”
INDEX 01 01:39:72
TRACK 03 AUDIO
TITLE “Hard loving man”
PERFORMER “Deep Purple”
INDEX 01 08:34:36
TRACK 04 AUDIO
TITLE “Maybe I m a leo”
PERFORMER “Deep Purple”
INDEX 01 14:43:26
TRACK 05 AUDIO
TITLE “Strange kind of woman”
PERFORMER “Deep Purple”
INDEX 01 19:13:42
TRACK 06 AUDIO
TITLE “Rapture of the deep”
PERFORMER “Deep Purple”
INDEX 01 25:33:04
TRACK 07 AUDIO
TITLE “Woman from Tokyo”
PERFORMER “Deep Purple”
INDEX 01 31:17:64
TRACK 08 AUDIO
TITLE “Contact lost”
PERFORMER “Deep Purple”
INDEX 01 37:37:31
TRACK 09 AUDIO
TITLE “When a blind man cries”
PERFORMER “Deep Purple”
INDEX 01 42:05:62
TRACK 10 AUDIO
TITLE “The well dressed guitar”
PERFORMER “Deep Purple”
INDEX 01 45:55:62

REM GENRE “Hard Rock”
REM DATE 2011
REM DISCID 820E6109
REM COMMENT “ExactAudioCopy v1.0b3”
PERFORMER “Deep Purple”
TITLE “Live at Montreux 2011 CD2 (2011, 2CD, EDGCD470)”
FILE “Deep Purple – Live at Montreux 2011 CD2.flac” WAVE
TRACK 01 AUDIO
TITLE “Knocking at your back door”
PERFORMER “Deep Purple”
INDEX 01 00:00:00
TRACK 02 AUDIO
TITLE “Lazy”
PERFORMER “Deep Purple”
INDEX 01 06:07:62
TRACK 03 AUDIO
TITLE “No one came”
PERFORMER “Deep Purple”
INDEX 01 14:53:38
TRACK 04 AUDIO
TITLE “Don Airey Keyboard Solo”
PERFORMER “Deep Purple”
INDEX 01 20:33:44
TRACK 05 AUDIO
TITLE “Perfect Strangers”
PERFORMER “Deep Purple”
INDEX 01 26:19:20
TRACK 06 AUDIO
TITLE “Space Trucking”
PERFORMER “Deep Purple”
INDEX 01 32:24:66
TRACK 07 AUDIO
TITLE “Smoke on the water”
PERFORMER “Deep Purple”
INDEX 01 37:20:54
TRACK 08 AUDIO
TITLE “Hush”
PERFORMER “Deep Purple”
INDEX 01 45:53:17
TRACK 09 AUDIO
TITLE “Black night”
PERFORMER “Deep Purple”
INDEX 01 54:11:72


Leave a Reply

Your email address will not be published. Required fields are marked *

Enter the text from the image below
 

This site uses Akismet to reduce spam. Learn how your comment data is processed.