Deep Purple – Live At Montreux 1996




No Cover available

Artist: Deep Purple
Year: 2006
Genre: Rock
Notes: Discogs
Add. Notes:
Watch Songs on: YouTube
Cover incl.: Yes
Encoder: FLAC
Bitrate: ~900 kBit/s (44.1 kHz/16 Bit/s)
Log & Cue incl.: Yes/Yes
Size: 514,48 MB
Password: “slam” (without ” “)


All Downloads/Hosters are compatible

Download 1
KatFile.com
Turbobit.net
Rapidgator.net
FileFactory.com
Download 2
KatFile.com
Turbobit.net
Rapidgator.net
FileFactory.com

Tracklist:

1 Fireball 
2 Ted The Mechanic 
3 Pictures Of Home 
4 Black Night 
5 Woman From Tokyo 
6 No One Came 
7 When A Blind Man Cries 
8 Hey Cisco 
9 Speed King 
10 Smoke On The Water 
11 Sometimes I Feel Like Screaming 
12 Fools

EAC-Log, CUE-Sheed & NFO:

Click to open spoiler
Exact Audio Copy V1.0 beta 3 from 29. August 2011

EAC extraction logfile from 30. July 2013, 23:23

Deep Purple / Live At Montreux 1996

Used drive : ATAPI iHAS124 B Adapter: 2 ID: 0

Read mode : Secure
Utilize accurate stream : Yes
Defeat audio cache : Yes
Make use of C2 pointers : No

Read offset correction : 6
Overread into Lead-In and Lead-Out : No
Fill up missing offset samples with silence : Yes
Delete leading and trailing silent blocks : No
Null samples used in CRC calculations : Yes
Used interface : Native Win32 interface for Win NT & 2000

Used output format : User Defined Encoder
Selected bitrate : 1024 kBit/s
Quality : High
Add ID3 tag : No
Command line compressor : C:\Program Files (x86)\Exact Audio Copy\FLAC\FLAC.EXE
Additional command line options : -8 -V -T “ARTIST=%artist%” -T “TITLE=%title%” -T “ALBUM=%albumtitle%” -T “DATE=%year%” -T “TRACKNUMBER=%tracknr%” -T “GENRE=%genre%” -T “PERFORMER=%albuminterpret%” -T “COMPOSER=%composer%” %haslyrics%–tag-from-file=LYRICS=”%lyricsfile%”%haslyrics% -T “ALBUMARTIST=%albumartist%” -T “DISCNUMBER=%cdnumber%” -T “TOTALDISCS=%totalcds%” -T “TOTALTRACKS=%numtracks%” -T “COMMENT=%comment%” %source% -o %dest%

TOC of the extracted CD

Track | Start | Length | Start sector | End sector
———————————————————
1 | 0:00.00 | 3:50.34 | 0 | 17283
2 | 3:50.34 | 4:27.21 | 17284 | 37329
3 | 8:17.55 | 5:41.05 | 37330 | 62909
4 | 13:58.60 | 6:43.02 | 62910 | 93136
5 | 20:41.62 | 5:21.54 | 93137 | 117265
6 | 26:03.41 | 5:06.06 | 117266 | 140221
7 | 31:09.47 | 7:29.67 | 140222 | 173963
8 | 38:39.39 | 5:47.63 | 173964 | 200051
9 | 44:27.27 | 5:09.71 | 200052 | 223297
10 | 49:37.23 | 8:15.22 | 223298 | 260444
11 | 57:52.45 | 6:46.11 | 260445 | 290905
12 | 64:38.56 | 9:41.65 | 290906 | 334545

Range status and errors

Selected range

Filename G:\CD\Deep Purple – Live At Montreux 1996.wav

Peak level 100.0 %
Extraction speed 7.0 X
Range quality 100.0 %
Test CRC D379303A
Copy CRC D379303A
Copy OK

No errors occurred

AccurateRip summary

Track 1 accurately ripped (confidence 7) [54E10E6C] (AR v2)
Track 2 accurately ripped (confidence 7) [F1E1D1A9] (AR v2)
Track 3 accurately ripped (confidence 7) [67FC09F4] (AR v2)
Track 4 accurately ripped (confidence 7) [4AAEBF87] (AR v2)
Track 5 accurately ripped (confidence 7) [3588B743] (AR v2)
Track 6 accurately ripped (confidence 7) [B2438416] (AR v2)
Track 7 accurately ripped (confidence 7) [9364413A] (AR v2)
Track 8 accurately ripped (confidence 7) [2C92E004] (AR v2)
Track 9 accurately ripped (confidence 7) [770526FA] (AR v2)
Track 10 accurately ripped (confidence 7) [17DEAC61] (AR v2)
Track 11 accurately ripped (confidence 7) [55045366] (AR v2)
Track 12 accurately ripped (confidence 7) [B2A4B5A9] (AR v2)

All tracks accurately ripped

End of status report

==== Log checksum 774E29479FCABD532A18698EF72171DBEAB0BDB2CFD15EAEACC0CAB88295EF93 ====

REM GENRE “Hard Rock”
REM DATE 2006
REM DISCID B6116C0C
REM COMMENT “ExactAudioCopy v1.0b3”
PERFORMER “Deep Purple”
TITLE “Live At Montreux 1996 (2006, ER20087-2)”
FILE “Deep Purple – Live At Montreux 1996.flac” WAVE
TRACK 01 AUDIO
TITLE “Fireball”
PERFORMER “Deep Purple”
INDEX 01 00:00:00
TRACK 02 AUDIO
TITLE “Ted The Mechanic”
PERFORMER “Deep Purple”
INDEX 01 03:50:34
TRACK 03 AUDIO
TITLE “Pictures Of Home”
PERFORMER “Deep Purple”
INDEX 01 08:17:55
TRACK 04 AUDIO
TITLE “Black Night”
PERFORMER “Deep Purple”
INDEX 01 13:58:60
TRACK 05 AUDIO
TITLE “Woman From Tokyo”
PERFORMER “Deep Purple”
INDEX 01 20:41:62
TRACK 06 AUDIO
TITLE “No One Came”
PERFORMER “Deep Purple”
INDEX 01 26:03:41
TRACK 07 AUDIO
TITLE “When A Blind Man Cries”
PERFORMER “Deep Purple”
INDEX 01 31:09:47
TRACK 08 AUDIO
TITLE “Hey Cisco”
PERFORMER “Deep Purple”
INDEX 01 38:39:39
TRACK 09 AUDIO
TITLE “Speed King”
PERFORMER “Deep Purple”
INDEX 01 44:27:27
TRACK 10 AUDIO
TITLE “Smoke On The Water”
PERFORMER “Deep Purple”
INDEX 01 49:37:23
TRACK 11 AUDIO
TITLE “Sometimes I Feel Like Screaming (Bonus)”
PERFORMER “Deep Purple”
INDEX 00 57:50:45
INDEX 01 57:52:45
TRACK 12 AUDIO
TITLE “Fools (Bonus)”
PERFORMER “Deep Purple”
INDEX 01 64:38:56


Leave a Reply

Your email address will not be published. Required fields are marked *

Enter the text from the image below
 

This site uses Akismet to reduce spam. Learn how your comment data is processed.