Deep Purple – Live At Long Beach 1976 (Remastered)




[Total: 0    Average: 0/5]

Artist: Deep Purple
Year: 1995/2016
Genre: Rock
Notes: Discogs
Add. Notes: Remastered
Cover incl.: Yes
Encoder: FLAC
Bitrate: ~1000 kBit/s (44.1 kHz/16 Bit/s)
Log & Cue incl.: Yes
Size: 938,5 MB
Password: “slam” (without ” “)


All Downloads/Hosters are compatible

Download 1
KatFile.com
Turbobit.net
FileFactory.com
Rapidgator.net
Download 2
KatFile.com
Turbobit.net
FileFactory.com
Rapidgator.net

Tracklist:

CD 1
1 Intro 2:01
2 Burn 7:37
3 Lady Luck 3:06
4 Getting Tighter 14:10
5 Love Child 5:50
6 Smoke On The Water / Georgia On My Mind 8:58
7 Lazy 16:43
8 Homeward Strut 5:56

CD 2
1 This Time Around 4:25
2 Owed To G 2:53
3 Guitar Solo Tommy Bolin 10:33
4 Stormbringer 11:37
5 Highway Star 7:19
Bonus - Live Springfield 1976
6 Smoke On The Water / Georgia On My Mind 9:41
7 Going Down 7:44
8 Highway Star 6:26

EAC-Log, CUE-Sheed & NFO:

Click to open spoiler
Exact Audio Copy V1.0 beta 4 from 7. December 2014

EAC extraction logfile from 15. June 2016, 13:19

Deep Purple / Live At Long Beach 1976 CD1 (2016, 2CD, 0210940EMU)

Used drive : ATAPI iHAS124 B Adapter: 1 ID: 0

Read mode : Secure
Utilize accurate stream : Yes
Defeat audio cache : Yes
Make use of C2 pointers : No

Read offset correction : 6
Overread into Lead-In and Lead-Out : No
Fill up missing offset samples with silence : Yes
Delete leading and trailing silent blocks : No
Null samples used in CRC calculations : Yes
Used interface : Installed external ASPI interface

Used output format : User Defined Encoder
Selected bitrate : 128 kBit/s
Quality : High
Add ID3 tag : Yes
Command line compressor : C:\Program Files (x86)\Exact Audio Copy\Flac\flac.exe
Additional command line options : -V -8 -T “Date=%year%” -T “Genre=%genre%” %source%

TOC of the extracted CD

Track | Start | Length | Start sector | End sector
———————————————————
1 | 0:00.00 | 2:00.54 | 0 | 9053
2 | 2:00.54 | 7:36.72 | 9054 | 43325
3 | 9:37.51 | 3:06.19 | 43326 | 57294
4 | 12:43.70 | 14:08.66 | 57295 | 120960
5 | 26:52.61 | 5:50.10 | 120961 | 147220
6 | 32:42.71 | 8:58.00 | 147221 | 187570
7 | 41:40.71 | 16:41.56 | 187571 | 262701
8 | 58:22.52 | 5:55.24 | 262702 | 289350

Range status and errors

Selected range

Filename G:\CD\Deep Purple – Live At Long Beach 1976 CD1.wav

Peak level 99.9 %
Extraction speed 3.3 X
Range quality 100.0 %
Test CRC 898B72B9
Copy CRC 898B72B9
Copy OK

No errors occurred

AccurateRip summary

Track 1 accurately ripped (confidence 2) [6C08AC44] (AR v2)
Track 2 accurately ripped (confidence 2) [4401D23C] (AR v2)
Track 3 accurately ripped (confidence 2) [27D5A97A] (AR v2)
Track 4 accurately ripped (confidence 2) [97B46F93] (AR v2)
Track 5 accurately ripped (confidence 2) [912CC2C7] (AR v2)
Track 6 accurately ripped (confidence 2) [403B6A39] (AR v2)
Track 7 accurately ripped (confidence 2) [A64B47A3] (AR v2)
Track 8 accurately ripped (confidence 2) [3E300F84] (AR v2)

All tracks accurately ripped

End of status report

—- CUETools DB Plugin V2.1.4

[CTDB TOCID: PKfcv3N6c3ZUWWXygyOVhmku_sI-] found
Submit result: PKfcv3N6c3ZUWWXygyOVhmku_sI- has been confirmed
Track | CTDB Status
1 | (14/24) Accurately ripped
2 | (14/24) Accurately ripped
3 | (14/24) Accurately ripped
4 | (14/24) Accurately ripped
5 | (14/24) Accurately ripped
6 | (14/24) Accurately ripped
7 | (14/24) Accurately ripped
8 | (14/24) Accurately ripped

==== Log checksum 420160EEE29A1373DC318DA4C85BD305F95E9A5365AA7DA89C10BF378005DBE3 ====

Exact Audio Copy V1.0 beta 4 from 7. December 2014

EAC extraction logfile from 15. June 2016, 17:51

Deep Purple / Live At Long Beach 1976 CD2 (2016, 2CD, 0210940EMU)

Used drive : ATAPI iHAS124 B Adapter: 1 ID: 0

Read mode : Secure
Utilize accurate stream : Yes
Defeat audio cache : Yes
Make use of C2 pointers : No

Read offset correction : 6
Overread into Lead-In and Lead-Out : No
Fill up missing offset samples with silence : Yes
Delete leading and trailing silent blocks : No
Null samples used in CRC calculations : Yes
Used interface : Installed external ASPI interface

Used output format : User Defined Encoder
Selected bitrate : 128 kBit/s
Quality : High
Add ID3 tag : Yes
Command line compressor : C:\Program Files (x86)\Exact Audio Copy\Flac\flac.exe
Additional command line options : -V -8 -T “Date=%year%” -T “Genre=%genre%” %source%

TOC of the extracted CD

Track | Start | Length | Start sector | End sector
———————————————————
1 | 0:00.00 | 4:25.17 | 0 | 19891
2 | 4:25.17 | 2:52.74 | 19892 | 32865
3 | 7:18.16 | 10:32.34 | 32866 | 80299
4 | 17:50.50 | 11:36.09 | 80300 | 132508
5 | 29:26.59 | 7:18.52 | 132509 | 165410
6 | 36:45.36 | 9:40.27 | 165411 | 208937
7 | 46:25.63 | 7:43.14 | 208938 | 243676
8 | 54:09.02 | 6:25.38 | 243677 | 272589

Range status and errors

Selected range

Filename G:\CD\Deep Purple – Live At Long Beach 1976 CD2.wav

Peak level 99.9 %
Extraction speed 3.1 X
Range quality 100.0 %
Test CRC 716D984E
Copy CRC 716D984E
Copy OK

No errors occurred

AccurateRip summary

Track 1 accurately ripped (confidence 2) [3124F23F] (AR v2)
Track 2 accurately ripped (confidence 2) [0904DBAE] (AR v2)
Track 3 accurately ripped (confidence 2) [D39D8F28] (AR v2)
Track 4 accurately ripped (confidence 2) [72E01673] (AR v2)
Track 5 accurately ripped (confidence 2) [7E308749] (AR v2)
Track 6 accurately ripped (confidence 2) [1565DC4C] (AR v2)
Track 7 accurately ripped (confidence 2) [43FA097F] (AR v2)
Track 8 accurately ripped (confidence 2) [5995063E] (AR v2)

All tracks accurately ripped

End of status report

—- CUETools DB Plugin V2.1.4

[CTDB TOCID: gUQxQONdOP7dPeIe8RbPE3z6R1M-] found
Submit result: gUQxQONdOP7dPeIe8RbPE3z6R1M- has been confirmed
Track | CTDB Status
1 | (14/24) Accurately ripped
2 | (14/24) Accurately ripped
3 | (14/24) Accurately ripped
4 | (14/24) Accurately ripped
5 | (14/24) Accurately ripped
6 | (14/24) Accurately ripped
7 | (14/24) Accurately ripped
8 | (14/24) Accurately ripped

==== Log checksum 9924C6B433053383BB48370EB4EBB89E893DB5A719DEBCB0991B395724190B72 ====

REM GENRE “Hard Rock”
REM DATE 2016
REM DISCID 630F1208
REM COMMENT “ExactAudioCopy v1.0b4”
PERFORMER “Deep Purple”
TITLE “Live At Long Beach 1976 CD1 (2016, 2CD, 0210940EMU)”
FILE “Deep Purple – Live At Long Beach 1976 CD1.flac” WAVE
TRACK 01 AUDIO
TITLE “Intro”
PERFORMER “Deep Purple”
INDEX 01 00:00:00
TRACK 02 AUDIO
TITLE “Burn”
PERFORMER “Deep Purple”
INDEX 01 02:00:54
TRACK 03 AUDIO
TITLE “Lady Luck”
PERFORMER “Deep Purple”
INDEX 01 09:37:51
TRACK 04 AUDIO
TITLE “Gettin` Tighter”
PERFORMER “Deep Purple”
INDEX 01 12:43:70
TRACK 05 AUDIO
TITLE “Love Child”
PERFORMER “Deep Purple”
INDEX 01 26:52:61
TRACK 06 AUDIO
TITLE “Smoke On The Water / Georgia On My Mind”
PERFORMER “Deep Purple”
INDEX 01 32:42:71
TRACK 07 AUDIO
TITLE “Lazy”
PERFORMER “Deep Purple”
INDEX 01 41:40:71
TRACK 08 AUDIO
TITLE “Homeward Strut”
PERFORMER “Deep Purple”
INDEX 01 58:22:52

REM GENRE “Hard Rock”
REM DATE 2016
REM DISCID 670E3208
REM COMMENT “ExactAudioCopy v1.0b4”
PERFORMER “Deep Purple”
TITLE “Live At Long Beach 1976 CD2 (2016, 2CD, 0210940EMU)”
FILE “Deep Purple – Live At Long Beach 1976 CD2.flac” WAVE
TRACK 01 AUDIO
TITLE “This Time Around”
PERFORMER “Deep Purple”
INDEX 01 00:00:00
TRACK 02 AUDIO
TITLE “Owed To G”
PERFORMER “Deep Purple”
INDEX 01 04:25:17
TRACK 03 AUDIO
TITLE “Guitar Solo Tommy Bolin”
PERFORMER “Deep Purple”
INDEX 01 07:18:16
TRACK 04 AUDIO
TITLE “Stormbringer”
PERFORMER “Deep Purple”
INDEX 01 17:50:50
TRACK 05 AUDIO
TITLE “Highway Star”
PERFORMER “Deep Purple”
INDEX 01 29:26:59
TRACK 06 AUDIO
TITLE “Smoke On The Water / Georgia On My Mind (Bonus) Live in Springfield 1976”
PERFORMER “Deep Purple”
INDEX 01 36:45:36
TRACK 07 AUDIO
TITLE “Going Down (Bonus) Live in Springfield 1976”
PERFORMER “Deep Purple”
INDEX 01 46:25:63
TRACK 08 AUDIO
TITLE “Highway Star (Bonus) Live in Springfield 1976”
PERFORMER “Deep Purple”
INDEX 01 54:09:02


Spread the Download

Leave a Reply

Your email address will not be published. Required fields are marked *

Enter the text from the image below
 

This site uses Akismet to reduce spam. Learn how your comment data is processed.