Deep Purple – Knocking At Your Back Door: The Best Of Deep Purple In The 80’s




Artist: Deep Purple
Year: 1992
Genre: Rock
Notes: Discogs
Add. Notes:
Cover incl.: Yes
Encoder: FLAC
Bitrate: ~900 kBit/s (44.1 kHz/16 Bit/s)
Log & Cue incl.: Yes
Size: 413,1 MB
Password: “slam” (without ” “)


All Downloads/Hosters are compatible

Download 1
KatFile.com
Turbobit.net
FileFactory.com
Rapidgator.net
Download 2
KatFile.com
Turbobit.net
FileFactory.com
Rapidgator.net

Tracklist:

1 Knocking At Your Back Door 7:02
2 Bad Attitude 5:07
3 Son Of Aleric (Instrumental) 10:01
4 Nobody's Home 4:00
5 Black Night 6:07
6 Perfect Strangers 5:19
7 The Unwritten Law 4:55
8 Call Of The Wild 4:51
9 Hush 3:31
10 Smoke On The Water 7:43
11 Space Trucking 5:39

EAC-Log, CUE-Sheed & NFO:

Click to open spoiler
Exact Audio Copy V1.0 beta 3 from 29. August 2011

EAC extraction logfile from 23. January 2014, 21:34

Deep Purple / Knocking At Your Back Door – The Best Of Deep Purple In The 80’s

Used drive : Optiarc BD RW BD-5300S Adapter: 0 ID: 1

Read mode : Secure
Utilize accurate stream : Yes
Defeat audio cache : Yes
Make use of C2 pointers : No

Read offset correction : 6
Overread into Lead-In and Lead-Out : No
Fill up missing offset samples with silence : Yes
Delete leading and trailing silent blocks : No
Null samples used in CRC calculations : Yes
Used interface : Native Win32 interface for Win NT & 2000

Used output format : User Defined Encoder
Selected bitrate : 1024 kBit/s
Quality : High
Add ID3 tag : No
Command line compressor : C:\Program Files (x86)\Exact Audio Copy\FLAC\FLAC.EXE
Additional command line options : -V -8 -T “Date=%year%” -T “Genre=%genre%” %source%

TOC of the extracted CD

Track | Start | Length | Start sector | End sector
———————————————————
1 | 0:00.33 | 7:04.37 | 33 | 31869
2 | 7:04.70 | 5:07.13 | 31870 | 54907
3 | 12:12.08 | 10:03.25 | 54908 | 100157
4 | 22:15.33 | 4:02.37 | 100158 | 118344
5 | 26:17.70 | 6:09.13 | 118345 | 146032
6 | 32:27.08 | 5:21.12 | 146033 | 170119
7 | 37:48.20 | 4:55.13 | 170120 | 192257
8 | 42:43.33 | 4:53.37 | 192258 | 214269
9 | 47:36.70 | 3:32.38 | 214270 | 230207
10 | 51:09.33 | 7:44.25 | 230208 | 265032
11 | 58:53.58 | 5:40.50 | 265033 | 290582

Range status and errors

Selected range

Filename G:\CD\Deep Purple – Knocking At Your Back Door.wav

Peak level 100.0 %
Extraction speed 7.5 X
Range quality 99.9 %
Test CRC DCCEA054
Copy CRC DCCEA054
Copy OK

No errors occurred

AccurateRip summary

Track 1 accurately ripped (confidence 21) [D8590662] (AR v2)
Track 2 accurately ripped (confidence 21) [EFBE1876] (AR v2)
Track 3 accurately ripped (confidence 21) [B9A59E66] (AR v2)
Track 4 accurately ripped (confidence 21) [F852E0D8] (AR v2)
Track 5 accurately ripped (confidence 21) [CB306D2F] (AR v2)
Track 6 accurately ripped (confidence 21) [26CB09FE] (AR v2)
Track 7 accurately ripped (confidence 21) [23C4BD71] (AR v2)
Track 8 accurately ripped (confidence 21) [6E39C59D] (AR v2)
Track 9 accurately ripped (confidence 19) [CF5DEFFB] (AR v2)
Track 10 accurately ripped (confidence 21) [647E7724] (AR v2)
Track 11 accurately ripped (confidence 21) [1ADA71C4] (AR v2)

All tracks accurately ripped

End of status report

==== Log checksum A4F2439E60B2284888807695CF93311C0FE11999A1C01432B5119C46C96B2096 ====

REM GENRE “Hard Rock”
REM DATE 1991
REM DISCID A60F220B
REM COMMENT “ExactAudioCopy v1.0b3”
CATALOG 0731451143823
PERFORMER “Deep Purple”
TITLE “Knocking At Your Back Door – The Best Of Deep Purple In The 80’s (1992, 511 438-2)”
FILE “Deep Purple – Knocking At Your Back Door.flac” WAVE
TRACK 01 AUDIO
TITLE “Knocking At Your Back Door”
PERFORMER “Deep Purple”
ISRC USA278400010
INDEX 00 00:00:00
INDEX 01 00:00:33
TRACK 02 AUDIO
TITLE “Bad Attitude”
PERFORMER “Deep Purple”
ISRC USA278625010
INDEX 00 07:03:20
INDEX 01 07:04:70
TRACK 03 AUDIO
TITLE “Son Of Aleric (Instrumental)”
PERFORMER “Deep Purple”
ISRC USMR18489042
INDEX 01 12:12:08
TRACK 04 AUDIO
TITLE “Nobody’s Home”
PERFORMER “Deep Purple”
ISRC USA278400030
INDEX 00 22:14:20
INDEX 01 22:15:33
TRACK 05 AUDIO
TITLE “Black Night”
PERFORMER “Deep Purple”
ISRC USMR18889014
INDEX 00 26:14:08
INDEX 01 26:17:70
TRACK 06 AUDIO
TITLE “Perfect Strangers”
PERFORMER “Deep Purple”
ISRC USIR20300240
INDEX 00 32:25:20
INDEX 01 32:27:08
TRACK 07 AUDIO
TITLE “The Unwritten Law”
PERFORMER “Deep Purple”
ISRC USPR38704010
INDEX 00 37:46:70
INDEX 01 37:48:20
TRACK 08 AUDIO
TITLE “Call Of The Wild”
PERFORMER “Deep Purple”
ISRC USA278625030
INDEX 01 42:43:33
TRACK 09 AUDIO
TITLE “Hush”
PERFORMER “Deep Purple”
ISRC USMR18889855
INDEX 00 47:35:08
INDEX 01 47:36:70
TRACK 10 AUDIO
TITLE “Smoke On The Water”
PERFORMER “Deep Purple”
ISRC USPR38880091
INDEX 00 51:08:45
INDEX 01 51:09:33
TRACK 11 AUDIO
TITLE “Space Trucking”
PERFORMER “Deep Purple”
ISRC USMR18888005
INDEX 00 58:53:20
INDEX 01 58:53:58


Leave a Reply

Your email address will not be published. Required fields are marked *

Enter the text from the image below
 

This site uses Akismet to reduce spam. Learn how your comment data is processed.