Deep Purple – In The Absence Of Pink – Knebworth 85




Artist: Deep Purple
Year: 1991
Genre: Rock
Notes: Discogs
Add. Notes:
Cover incl.: Yes
Encoder: FLAC
Bitrate: ~900 kBit/s (44.1 kHz/16 Bit/s)
Log & Cue incl.: Yes
Size: 691 MB
Password: “slam” (without ” “)


All Downloads/Hosters are compatible

Download 1
KatFile.com
Turbobit.net
FileFactory.com
Rapidgator.net
Download 2
KatFile.com
Turbobit.net
FileFactory.com
Rapidgator.net

Tracklist:

1-1. Highway Star
1-2. Nobody's Home
1-3. Strange Kind Of Woman
1-4. A Gypsy's Kiss
1-5. Perfect Strangers
1-6. Lazy
1-7. Knocking At Your Backdoor

2-1. Difficult To Cure
2-2. Space Truckin'
2-3. Speed King
2-4. Black Night
2-5. Smoke On The Water

EAC-Log, CUE-Sheed & NFO:

Click to open spoiler
Exact Audio Copy V1.0 beta 3 from 29. August 2011

EAC extraction logfile from 19. August 2013, 8:28

Deep Purple / In the Absence of Pink. Knebworth 85 CD1

Used drive : ATAPI iHAS124 B Adapter: 2 ID: 0

Read mode : Secure
Utilize accurate stream : Yes
Defeat audio cache : Yes
Make use of C2 pointers : No

Read offset correction : 6
Overread into Lead-In and Lead-Out : No
Fill up missing offset samples with silence : Yes
Delete leading and trailing silent blocks : No
Null samples used in CRC calculations : Yes
Used interface : Native Win32 interface for Win NT & 2000

Used output format : User Defined Encoder
Selected bitrate : 1024 kBit/s
Quality : High
Add ID3 tag : No
Command line compressor : C:\Program Files (x86)\Exact Audio Copy\FLAC\FLAC.EXE
Additional command line options : -8 -V -T “ARTIST=%artist%” -T “TITLE=%title%” -T “ALBUM=%albumtitle%” -T “DATE=%year%” -T “TRACKNUMBER=%tracknr%” -T “GENRE=%genre%” -T “PERFORMER=%albuminterpret%” -T “COMPOSER=%composer%” %haslyrics%–tag-from-file=LYRICS=”%lyricsfile%”%haslyrics% -T “ALBUMARTIST=%albumartist%” -T “DISCNUMBER=%cdnumber%” -T “TOTALDISCS=%totalcds%” -T “TOTALTRACKS=%numtracks%” -T “COMMENT=%comment%” %source% -o %dest%

TOC of the extracted CD

Track | Start | Length | Start sector | End sector
———————————————————
1 | 0:00.33 | 6:57.22 | 33 | 31329
2 | 6:57.55 | 4:09.15 | 31330 | 50019
3 | 11:06.70 | 8:47.58 | 50020 | 89602
4 | 19:54.53 | 6:21.20 | 89603 | 118197
5 | 26:15.73 | 6:54.50 | 118198 | 149297
6 | 33:10.48 | 7:02.42 | 149298 | 180989
7 | 40:13.15 | 9:10.00 | 180990 | 222239

Range status and errors

Selected range

Filename G:\CD\Deep Purple – In the Absence of Pink. Knebworth 85 CD1.wav

Peak level 100.0 %
Extraction speed 5.9 X
Range quality 100.0 %
Test CRC 4DC0FA55
Copy CRC 4DC0FA55
Copy OK

No errors occurred

AccurateRip summary

Track 1 cannot be verified as accurate (confidence 24) [B91BE102], AccurateRip returned [C37355A0] (AR v2)
Track 2 cannot be verified as accurate (confidence 24) [EAC452A5], AccurateRip returned [5711073C] (AR v2)
Track 3 cannot be verified as accurate (confidence 25) [1C02533B], AccurateRip returned [D0BBC7D2] (AR v2)
Track 4 cannot be verified as accurate (confidence 24) [68C8A09E], AccurateRip returned [C94A1920] (AR v2)
Track 5 cannot be verified as accurate (confidence 23) [712C0E11], AccurateRip returned [B7858F6A] (AR v2)
Track 6 cannot be verified as accurate (confidence 24) [808F0CD8], AccurateRip returned [2CE853F6] (AR v2)
Track 7 cannot be verified as accurate (confidence 24) [9AFE76BC], AccurateRip returned [7A335BDD] (AR v2)

No tracks could be verified as accurate
You may have a different pressing from the one(s) in the database

End of status report

==== Log checksum EB27E7AA9FE21FD8E9F68B2A13AA731A818882698334233FDBA7C4EBF42B59B8 ====

Exact Audio Copy V1.0 beta 3 from 29. August 2011

EAC extraction logfile from 19. August 2013, 9:01

Deep Purple / In the Absence of Pink. Knebworth 85 CD2

Used drive : ATAPI iHAS124 B Adapter: 2 ID: 0

Read mode : Secure
Utilize accurate stream : Yes
Defeat audio cache : Yes
Make use of C2 pointers : No

Read offset correction : 6
Overread into Lead-In and Lead-Out : No
Fill up missing offset samples with silence : Yes
Delete leading and trailing silent blocks : No
Null samples used in CRC calculations : Yes
Used interface : Native Win32 interface for Win NT & 2000

Used output format : User Defined Encoder
Selected bitrate : 1024 kBit/s
Quality : High
Add ID3 tag : No
Command line compressor : C:\Program Files (x86)\Exact Audio Copy\FLAC\FLAC.EXE
Additional command line options : -8 -V -T “ARTIST=%artist%” -T “TITLE=%title%” -T “ALBUM=%albumtitle%” -T “DATE=%year%” -T “TRACKNUMBER=%tracknr%” -T “GENRE=%genre%” -T “PERFORMER=%albuminterpret%” -T “COMPOSER=%composer%” %haslyrics%–tag-from-file=LYRICS=”%lyricsfile%”%haslyrics% -T “ALBUMARTIST=%albumartist%” -T “DISCNUMBER=%cdnumber%” -T “TOTALDISCS=%totalcds%” -T “TOTALTRACKS=%numtracks%” -T “COMMENT=%comment%” %source% -o %dest%

TOC of the extracted CD

Track | Start | Length | Start sector | End sector
———————————————————
1 | 0:00.32 | 9:23.38 | 32 | 42294
2 | 9:23.70 | 14:49.50 | 42295 | 109019
3 | 24:13.45 | 10:11.45 | 109020 | 154889
4 | 34:25.15 | 6:43.12 | 154890 | 185126
5 | 41:08.27 | 10:24.43 | 185127 | 231969

Range status and errors

Selected range

Filename G:\CD\Deep Purple – In the Absence of Pink. Knebworth 85 CD2.wav

Peak level 97.2 %
Extraction speed 5.9 X
Range quality 99.9 %
Test CRC 6F5EE457
Copy CRC 6F5EE457
Copy OK

No errors occurred

AccurateRip summary

Track 1 cannot be verified as accurate (confidence 23) [400A28C1], AccurateRip returned [89358C92] (AR v2)
Track 2 cannot be verified as accurate (confidence 24) [C59CBA9E], AccurateRip returned [FADE98E8] (AR v2)
Track 3 cannot be verified as accurate (confidence 24) [7F9B0C77], AccurateRip returned [74781ABF] (AR v2)
Track 4 cannot be verified as accurate (confidence 24) [E694E805], AccurateRip returned [F62D34DF] (AR v2)
Track 5 cannot be verified as accurate (confidence 24) [BC7B0B6A], AccurateRip returned [499DA677] (AR v2)

No tracks could be verified as accurate
You may have a different pressing from the one(s) in the database

End of status report

==== Log checksum 74C3D84B8D682E5FD8C91FC8B6DC988C094DCC60CB3466A3518AADF56232F01D ====

REM GENRE “Hard Rock”
REM DATE 1991
REM DISCID 6A0B9307
REM COMMENT “ExactAudioCopy v1.0b3”
PERFORMER “Deep Purple”
TITLE “In the Absence of Pink. Knebworth 85 CD1 (1991, 2CD, DPVSOPCD163)”
FILE “Deep Purple – In the Absence of Pink. Knebworth 85 CD1.flac” WAVE
TRACK 01 AUDIO
TITLE “Highway Star”
PERFORMER “Deep Purple”
INDEX 00 00:00:00
INDEX 01 00:00:33
TRACK 02 AUDIO
TITLE “Nobody’s Home”
PERFORMER “Deep Purple”
INDEX 01 06:57:55
TRACK 03 AUDIO
TITLE “Strange Kind Of Woman”
PERFORMER “Deep Purple”
INDEX 01 11:06:70
TRACK 04 AUDIO
TITLE “Gypsy’s Kiss”
PERFORMER “Deep Purple”
INDEX 01 19:54:53
TRACK 05 AUDIO
TITLE “Perfect Street Rangers”
PERFORMER “Deep Purple”
INDEX 01 26:15:73
TRACK 06 AUDIO
TITLE “Lazy”
PERFORMER “Deep Purple”
INDEX 01 33:10:48
TRACK 07 AUDIO
TITLE “Knocking At Your Back Door”
PERFORMER “Deep Purple”
INDEX 01 40:13:15

REM GENRE “Hard Rock”
REM DATE 1991
REM DISCID 3D0C1405
REM COMMENT “ExactAudioCopy v1.0b3”
PERFORMER “Deep Purple”
TITLE “In the Absence of Pink. Knebworth 85 CD2 (1991, 2CD, DPVSOPCD163)”
FILE “Deep Purple – In the Absence of Pink. Knebworth 85 CD2.flac” WAVE
TRACK 01 AUDIO
TITLE “Space Truckin'”
PERFORMER “Deep Purple”
INDEX 00 00:00:00
INDEX 01 00:00:32
TRACK 02 AUDIO
TITLE “Difficult To Cure”
PERFORMER “Deep Purple”
INDEX 01 09:23:70
TRACK 03 AUDIO
TITLE “Speed King”
PERFORMER “Deep Purple”
INDEX 01 24:13:45
TRACK 04 AUDIO
TITLE “Black Night”
PERFORMER “Deep Purple”
INDEX 01 34:25:15
TRACK 05 AUDIO
TITLE “Smoke On The Water”
PERFORMER “Deep Purple”
INDEX 01 41:08:27


Leave a Reply

Your email address will not be published. Required fields are marked *

This site uses Akismet to reduce spam. Learn how your comment data is processed.