Deep Purple – In Rock




No Cover available


Artist: Deep Purple
Year: 1970/1990
Genre: Rock
Notes: Discogs
Add. Notes:
Watch Songs on: YouTube
Cover incl.: Yes
Encoder: FLAC
Bitrate: ~800 kBit/s (44.1 kHz/16 Bit/s)
Log & Cue incl.: Yes/Yes
Size: 278,3 MB
Password: “slam” (without ” “)


All Downloads/Hosters are compatible

Download 1
KatFile.com
Turbobit.net
Rapidgator.net
FileFactory.com
Download 2
KatFile.com
Turbobit.net
Rapidgator.net
FileFactory.com

Tracklist:

1 Speed King 4:18
2 Bloodsucker 4:12
3 Child In Time 10:15
4 Flight Of The Rat 7:52
5 Into The Fire 3:29
6 Living Wreck 4:30
7 Hard Lovin' Man 7:10

EAC-Log, CUE-Sheed & NFO:

Click to open spoiler
Exact Audio Copy V1.0 beta 3 from 29. August 2011

EAC extraction logfile from 2. September 2013, 0:19

Deep Purple / In Rock

Used drive : LITE-ON DVDRW LH-20A1L Adapter: 1 ID: 0

Read mode : Secure
Utilize accurate stream : Yes
Defeat audio cache : Yes
Make use of C2 pointers : No

Read offset correction : 6
Overread into Lead-In and Lead-Out : No
Fill up missing offset samples with silence : Yes
Delete leading and trailing silent blocks : No
Null samples used in CRC calculations : Yes
Used interface : Installed external ASPI interface

Used output format : Internal WAV Routines
Sample format : 44.100 Hz; 16 Bit; Stereo

TOC of the extracted CD

Track | Start | Length | Start sector | End sector
———————————————————
1 | 0:00.33 | 4:24.22 | 33 | 19854
2 | 4:24.55 | 4:16.13 | 19855 | 39067
3 | 8:40.68 | 10:20.27 | 39068 | 85594
4 | 19:01.20 | 7:58.15 | 85595 | 121459
5 | 26:59.35 | 3:30.13 | 121460 | 137222
6 | 30:29.48 | 4:34.60 | 137223 | 157832
7 | 35:04.33 | 7:11.07 | 157833 | 190164

Range status and errors

Selected range

Filename Z:\data\Deep Purple-1970-In Rock [Warner Bros, Canada, CD 1877]\In Rock (CD 1877).wav

Peak level 100.0 %
Extraction speed 7.7 X
Range quality 100.0 %
Test CRC 2C92D07D
Copy CRC 2C92D07D
Copy OK

No errors occurred

AccurateRip summary

Track 1 accurately ripped (confidence 7) [AC848B29] (AR v2)
Track 2 accurately ripped (confidence 7) [456E8D80] (AR v2)
Track 3 accurately ripped (confidence 7) [92E02FED] (AR v2)
Track 4 accurately ripped (confidence 7) [4950F8B1] (AR v2)
Track 5 accurately ripped (confidence 7) [E2E6EC5D] (AR v2)
Track 6 accurately ripped (confidence 7) [5232E663] (AR v2)
Track 7 accurately ripped (confidence 7) [BA9E6708] (AR v2)

All tracks accurately ripped

End of status report

==== Log checksum 8405934E01794FEEFF900E3391752A085DF25647DCAC8A5C2C4F9DB445D47662 ====

REM GENRE “Hard Rock”
REM DATE 1970
REM DISCID 4209E707
REM COMMENT “ExactAudioCopy v1.0b3”
CATALOG 0075990187727
PERFORMER “Deep Purple”
TITLE “In Rock (1990, CD 1877)”
FILE “In Rock (CD 1877).flac” WAVE
TRACK 01 AUDIO
TITLE “Speed King”
PERFORMER “Deep Purple”
INDEX 00 00:00:00
INDEX 01 00:00:33
TRACK 02 AUDIO
TITLE “Bloodsucker”
PERFORMER “Deep Purple”
INDEX 00 04:20:15
INDEX 01 04:24:55
TRACK 03 AUDIO
TITLE “Child In Time”
PERFORMER “Deep Purple”
INDEX 00 08:35:60
INDEX 01 08:40:68
TRACK 04 AUDIO
TITLE “Flight of the Rat”
PERFORMER “Deep Purple”
INDEX 00 18:59:00
INDEX 01 19:01:20
TRACK 05 AUDIO
TITLE “Into the Fire”
PERFORMER “Deep Purple”
INDEX 00 26:55:25
INDEX 01 26:59:35
TRACK 06 AUDIO
TITLE “Living Wreck”
PERFORMER “Deep Purple”
INDEX 01 30:29:48
TRACK 07 AUDIO
TITLE “Hard Lovin’ Man”
PERFORMER “Deep Purple”
INDEX 00 35:01:15
INDEX 01 35:04:33


Leave a Reply

Your email address will not be published. Required fields are marked *

Enter the text from the image below
 

This site uses Akismet to reduce spam. Learn how your comment data is processed.